<?xml version="1.0" standalone="no"?>
<!DOCTYPE svg PUBLIC "-//W3C//DTD SVG 1.1//EN" "https://www.w3.org/Graphics/SVG/1.1/DTD/svg11.dtd" >
<svg xmlns="https://www.w3.org/2000/svg">
<metadata>
Created by FontForge 20120731 at Sun Jul 27 14:53:18 2014
 By Stephen Hutchings
(c) Stephen Hutchings 2012
</metadata>
<defs>
<font id="typicons" horiz-adv-x="750" >
  <font-face 
    font-family="Typicons"
    font-weight="400"
    font-stretch="normal"
    units-per-em="1000"
    panose-1="2 0 5 3 0 0 0 0 0 0"
    ascent="800"
    descent="-200"
    bbox="-1.5 -242 1001.45 800"
    underline-thickness="50"
    underline-position="-100"
    unicode-range="U+E000-E14F"
  />
<missing-glyph horiz-adv-x="364" 
d="M33 0v666h265v-666h-265zM66 33h199v600h-199v-600z" />
    <glyph glyph-name=".notdef" horiz-adv-x="364" 
d="M33 0v666h265v-666h-265zM66 33h199v600h-199v-600z" />
    <glyph glyph-name="glyph1" unicode="&#xe001;" horiz-adv-x="667" 
d="M333 633q138 0 236 -97.5t98 -235.5t-98 -235.5t-236 -97.5t-235.5 97.5t-97.5 235.5t97.5 235.5t235.5 97.5zM333 50q103 0 176.5 73t73.5 177t-73.5 177t-176.5 73t-176.5 -73t-73.5 -177t73.5 -177t176.5 -73zM333 508q86 0 147.5 -61t61.5 -147t-61.5 -147
t-147.5 -61v416z" />
    <glyph glyph-name="glyph2" unicode="&#xe002;" 
d="M333 550q0 42 42 42t42 -42t-42 -42t-42 42zM42 342q0 51 37 88t88 37h17q-17 38 -17 83q0 86 61 147t147 61t147 -61t61 -147q0 -45 -17 -83h17q36 0 64.5 -18t44.5 -45q16 -28 16 -62q0 -26 -8 -46q50 -37 50 -100q0 -107 -53 -192t-134 -133q-88 -50 -188 -50
q-79 0 -148 31t-117 79t-79 117t-31 148q0 63 50 100q-8 20 -8 46zM125 238q-17 0 -29.5 -12.5t-12.5 -29.5q0 -120 86 -206t206 -86t206 86t86 206q0 17 -12.5 29.5t-29.5 12.5t-29.5 -12.5t-12.5 -29.5q0 -76 -48.5 -133t-117.5 -71v308h166q17 0 29.5 12.5t12.5 29.5
t-12.5 29t-29.5 12h-166v50q36 13 59.5 44t23.5 73q0 52 -36.5 88.5t-88.5 36.5t-88.5 -36.5t-36.5 -88.5q0 -41 24 -72.5t59 -44.5v-50h-166q-17 0 -29.5 -12t-12.5 -29t12.5 -29.5t29.5 -12.5h166v-308q-69 14 -117.5 71t-48.5 133q0 17 -12.5 29.5t-29.5 12.5zM180 258
q28 -25 28 -62q0 -95 84 -144v206h-112zM458 52q36 21 60 58.5t24 85.5q0 37 28 62h-112v-206zM333 550q0 42 42 42t42 -42t-42 -42t-42 42z" />
    <glyph glyph-name="glyph0" unicode="&#xe000;" horiz-adv-x="783" 
d="M392 511l-42 122q-6 17 2 33.5t25 22.5q24 8 45 -9.5t11 -46.5zM58 342l123 -42l-123 -42q-17 -6 -33.5 2.5t-22.5 25.5q-8 24 9.5 45t46.5 11zM392 89l41 -122q6 -17 -2 -33.5t-25 -22.5q-24 -8 -45 9.5t-11 46.5zM781 314q8 -24 -9.5 -45t-46.5 -11l-122 42l122 42
q17 6 33.5 -2.5t22.5 -25.5zM126 506q-17 8 -22.5 25t2.5 34q13 25 40 24t39 -24l57 -116zM126 15q-25 13 -24 40t24 39l116 57l-57 -116q-8 -17 -25 -22.5t-34 2.5zM657 94q17 -8 22.5 -25t-2.5 -34q-13 -25 -40 -24t-39 24l-57 116zM657 585q25 -13 24 -40t-24 -39
l-116 -57l57 116q8 17 25 22.5t34 -2.5zM392 488q77 0 132 -55.5t55 -132.5t-55 -132.5t-132 -55.5t-132.5 55.5t-55.5 132.5t55.5 132.5t132.5 55.5z" />
    <glyph glyph-name="glyph3" unicode="&#xe003;" horiz-adv-x="583" 
d="M542 238q17 0 29 -12.5t12 -29.5q0 -121 -85 -206.5t-206 -85.5t-206.5 85.5t-85.5 206.5q0 17 12.5 29.5t29.5 12.5t29 -12.5t12 -29.5q0 -75 47.5 -132.5t119.5 -71.5v308h-167q-17 0 -29 12.5t-12 29.5t12 29t29 12h167v50q-37 13 -60 45t-23 72q0 52 36.5 88.5
t88.5 36.5t88.5 -36.5t36.5 -88.5q0 -40 -23.5 -72t-60.5 -45v-50h167q17 0 29.5 -12t12.5 -29t-12.5 -29.5t-29.5 -12.5h-167v-308q72 14 119.5 71.5t47.5 132.5q0 17 12.5 29.5t29.5 12.5zM292 592q-17 0 -29.5 -12.5t-12.5 -29.5t12.5 -29.5t29.5 -12.5t29 12.5t12 29.5
t-12 29.5t-29 12.5z" />
    <glyph glyph-name="glyph4" unicode="&#xe004;" horiz-adv-x="792" 
d="M458 300q9 0 15 -6t6 -15t-6 -15t-15 -6h-125q-9 0 -15 6t-6 15t6 15t15 6h125zM750 592q17 0 29.5 -12.5t12.5 -29.5t-12.5 -29.5t-29.5 -12.5h-708q-17 0 -29.5 12.5t-12.5 29.5t12.5 29.5t29.5 12.5h708zM667 467q17 0 29 -12.5t12 -29.5v-333q0 -52 -36.5 -88.5
t-88.5 -36.5h-375q-52 0 -88.5 36.5t-36.5 88.5v333q0 17 12.5 29.5t29.5 12.5h542zM583 50q17 0 29.5 12.5t12.5 29.5v291h-458v-291q0 -17 12 -29.5t29 -12.5h375z" />
    <glyph glyph-name="glyph5" unicode="&#xe005;" 
d="M750 8q0 -17 -12 -29t-30 -12q-21 0 -34 19q-48 74 -110.5 106.5t-146.5 38.5v-60q0 -34 -25 -59q-24 -24 -59 -23.5t-58 23.5l-263 258q-12 12 -12 30t12 30l262 258q23 23 58.5 23.5t59.5 -23.5q25 -25 25 -59v-71q145 -29 239 -144t94 -264v-42zM376 216
q179 -4 282 -88q-24 101 -103 171t-185 82l-37 2v146l-232 -229l232 -229v146z" />
    <glyph glyph-name="glyph6" unicode="&#xe006;" horiz-adv-x="667" 
d="M292 571q16 0 28.5 -12.5t12.5 -29.5v-106q142 -16 238 -122.5t96 -250.5v-42q-64 97 -146 130.5t-188 36.5v-104q0 -17 -12.5 -29.5t-28.5 -12.5q-18 0 -30 12l-262 259l262 259q12 12 30 12z" />
    <glyph glyph-name="glyph7" unicode="&#xe007;" horiz-adv-x="667" 
d="M333 -88l-296 297q-37 37 -37 88t37 88q34 34 84.5 35.5t86.5 -30.5v202q0 52 36.5 88.5t88.5 36.5t88.5 -36.5t36.5 -88.5v-202q36 32 87 30.5t85 -35.5q37 -37 37 -88t-37 -88zM125 339q-18 0 -30 -12t-12 -29.5t12 -29.5l238 -238l238 238q12 12 12 29.5t-12 29.5
t-29.5 12t-29.5 -12l-137 -138v403q0 17 -12.5 29t-29.5 12t-29 -12t-12 -29v-403l-138 138q-12 12 -29 12z" />
    <glyph glyph-name="glyph8" unicode="&#xe008;" horiz-adv-x="583" 
d="M559 356q25 -25 25 -59t-25 -59l-267 -267l-268 267q-25 25 -25 59t25 59t59 25t59 -25l66 -66v302q0 34 24.5 58.5t59.5 24.5q34 0 58.5 -24.5t24.5 -58.5v-302l66 66q25 25 59 25t59 -25z" />
    <glyph glyph-name="glyph9" unicode="&#xe009;" horiz-adv-x="417" 
d="M404 246q12 -12 12 -29.5t-12 -29.5l-196 -196l-196 196q-12 12 -12 29.5t12 29.5t29.5 12t29.5 -12l96 -95v316q0 17 12 29t29 12t29.5 -12t12.5 -29v-316l96 95q12 12 29 12t29 -12z" />
    <glyph glyph-name="glyph10" unicode="&#xe00a;" 
d="M42 -33q-18 0 -30 12.5t-12 28.5v42q0 149 94 264t239 144v71q0 34 25 59q24 24 59.5 23.5t58.5 -23.5l262 -258q12 -12 12 -30t-12 -30l-263 -258q-23 -23 -58 -23.5t-59 23.5q-25 25 -25 59v60q-84 -6 -146.5 -38.5t-110.5 -106.5q-13 -19 -34 -19zM375 216l42 1v-146
l232 229l-232 229v-146q-16 0 -37 -2q-106 -12 -185 -82t-103 -171q103 84 283 88z" />
    <glyph glyph-name="glyph11" unicode="&#xe00b;" horiz-adv-x="667" 
d="M333 529q0 17 12.5 29.5t29.5 12.5t29 -12l263 -259l-263 -259q-12 -12 -29 -12t-29.5 12.5t-12.5 29.5v104q-106 -3 -187.5 -36.5t-145.5 -130.5v42q0 144 95.5 250.5t237.5 122.5v106z" />
    <glyph glyph-name="glyph12" unicode="&#xe00c;" horiz-adv-x="805" 
d="M510 50q0 -51 -37 -88t-88 -37t-88 37l-297 296l297 297q35 35 88 35t88 -35q37 -37 37 -88q0 -49 -32 -84h202q52 0 88.5 -36.5t36.5 -88.5t-36.5 -88.5t-88.5 -36.5h-202q32 -35 32 -83zM118 258l238 -237q12 -12 29.5 -12t29.5 12t12 29t-12 29l-138 138h403
q17 0 29 12t12 29t-12 29.5t-29 12.5h-403l138 137q12 12 12 30q0 17 -12 29t-29.5 12t-29.5 -12z" />
    <glyph glyph-name="glyph13" unicode="&#xe00d;" horiz-adv-x="704" 
d="M621 342q34 0 58.5 -24.5t24.5 -59.5q0 -34 -24 -58.5t-59 -24.5h-302l66 -66q25 -24 25 -58.5t-25 -59.5q-24 -24 -59 -24t-59 24l-267 267l267 268q25 25 59 25t59 -25q25 -24 25 -58.5t-25 -59.5l-66 -66h302z" />
    <glyph glyph-name="glyph14" unicode="&#xe00e;" horiz-adv-x="517" 
d="M476 342q17 0 29 -12.5t12 -29.5t-12 -29.5t-29 -12.5h-316l95 -95q12 -12 12 -29.5t-12 -29.5t-29 -12q-18 0 -30 12l-196 196l196 196q12 12 29.5 12t29.5 -12t12 -29.5t-12 -29.5l-95 -95h316z" />
    <glyph glyph-name="glyph15" unicode="&#xe00f;" horiz-adv-x="958" 
d="M625 633q51 0 88 -37t37 -88v-7q90 -23 149 -102t59 -182q0 -121 -85 -206.5t-206 -85.5h-375q-121 0 -206.5 85.5t-85.5 206.5t85.5 206t206.5 85h41q49 0 83 -31l121 120q36 36 88 36zM667 8q86 0 147 61.5t61 147.5t-55 147t-132 61h-87l53 54q12 12 12 29.5t-12 29.5
t-29 12t-29 -12l-155 -155l155 -154q12 -12 29 -12t29 12t12 29.5t-12 29.5l-53 54h87q43 0 73.5 -36.5t30.5 -88.5t-36.5 -88.5t-88.5 -36.5h-375q-52 0 -88.5 36.5t-36.5 88.5t36.5 88.5t88.5 36.5h41q17 0 29.5 12t12.5 29t-12.5 29.5t-29.5 12.5h-41q-86 0 -147.5 -61
t-61.5 -147t61.5 -147.5t147.5 -61.5h375zM708 258q0 -34 -24.5 -58.5t-58.5 -24.5q-35 0 -59 24l-155 155q-9 -24 -30 -39t-48 -15h-41q-35 0 -59.5 -24.5t-24.5 -58.5q0 -35 25 -59.5t59 -24.5h375q34 0 58.5 24.5t24.5 59.5q0 30 -15 53.5t-37 28.5q10 -17 10 -41z" />
    <glyph glyph-name="glyph16" unicode="&#xe010;" 
d="M562 467q77 0 132.5 -61.5t55.5 -147.5t-61 -147t-147 -61h-334q-86 0 -147 61t-61 147t61 147.5t147 61.5q17 0 29.5 -12.5t12.5 -29.5t-12.5 -29.5t-29.5 -12.5q-52 0 -88.5 -36.5t-36.5 -88.5t36.5 -88.5t88.5 -36.5h334q52 0 88.5 36.5t36.5 88.5t-31 88.5t-74 36.5
h-86l53 -54q12 -12 12 -29t-12 -29q-13 -13 -29 -13t-29 13l-155 154l155 154q12 12 29 12t29 -12t12 -29t-12 -29l-53 -54h86z" />
    <glyph glyph-name="glyph17" unicode="&#xe011;" horiz-adv-x="792" 
d="M490 675h302v-292q0 -40 -23.5 -72t-60.5 -45v-5v-294h-291q-13 -37 -48.5 -60.5t-76.5 -23.5h-292v292q0 40 23.5 72t60.5 45l-1 5v295h290q13 37 45 60t72 23zM625 50v211q0 17 -12.5 29.5t-29.5 12.5t-29 -12.5t-12 -29.5v-128h-125q-17 0 -29.5 -12t-12.5 -29
t12.5 -29.5t29.5 -12.5h208zM167 508v-211q0 -17 12 -29t29 -12t29.5 12t12.5 29v128h128q17 0 29 12.5t12 29.5t-12 29t-29 12h-211zM708 383v209h-208q-17 0 -29.5 -12.5t-12.5 -29.5t12.5 -29.5t29.5 -12.5h66l-137 -137q-12 -12 -12 -29.5t12 -29.5t29 -12q18 0 30 12
l137 137v-66q0 -17 12.5 -29t29.5 -12t29 12t12 29zM292 -33q17 0 29 12t12 29t-12 29.5t-29 12.5h-66l137 137q12 12 12 29.5t-12 29.5t-30 12q-17 0 -29 -12l-137 -137v66q0 17 -12.5 29.5t-29.5 12.5t-29.5 -12.5t-12.5 -29.5v-208h209zM333 300q34 0 59 -24.5t25 -58.5
q0 -22 -13 -43q5 1 15 1h81v86l1 9q-19 -12 -43 -12q-34 0 -58.5 25t-24.5 59q0 22 12 42l-9 -1h-86v-86l-1 -9q19 12 42 12z" />
    <glyph glyph-name="glyph18" unicode="&#xe012;" horiz-adv-x="667" 
d="M458 633h209v-208q0 -17 -12.5 -29.5t-29.5 -12.5t-29.5 12.5t-12.5 29.5v66l-137 -137q-12 -12 -29 -12q-18 0 -30 12t-12 29.5t12 29.5l137 137h-66q-17 0 -29 12.5t-12 29.5t12 29t29 12zM221 246q12 12 29 12t29 -12t12 -29.5t-12 -29.5l-137 -137h66
q17 0 29.5 -12.5t12.5 -29.5t-12.5 -29t-29.5 -12h-166h-42v208q0 17 12.5 29.5t29.5 12.5t29 -12.5t12 -29.5v-66zM125 300q-17 0 -29.5 12.5t-12.5 29.5v208h209q17 0 29 -12.5t12 -29.5t-12 -29t-29 -12h-125v-125q0 -17 -12.5 -29.5t-29.5 -12.5zM542 300q17 0 29 -12.5
t12 -29.5v-208h-208q-17 0 -29.5 12.5t-12.5 29.5t12.5 29t29.5 12h125v125q0 17 12.5 29.5t29.5 12.5z" />
    <glyph glyph-name="glyph19" unicode="&#xe013;" horiz-adv-x="792" 
d="M667 675q51 0 88 -37t37 -88t-37 -88l-37 -37q32 -35 32 -83q0 -57 -45 -95q3 -13 3 -28v-252h-247q-18 0 -31 4q-38 -46 -97 -46q-50 0 -85 33l-37 -38q-37 -37 -86 -37q-51 0 -88 37t-37 88q0 52 37 89l39 39q-29 35 -29 81q0 53 41 91q-5 25 -5 31v253h253q9 0 27 -4
q38 45 95 45q50 0 84 -31l36 36q37 37 89 37zM167 508v-166q0 -17 12 -29.5t29 -12.5t29.5 12.5t12.5 29.5v83h83q17 0 29.5 12.5t12.5 29.5t-12.5 29t-29.5 12h-166zM696 521q12 12 12 29t-12 29q-13 13 -29 13q-17 0 -30 -13l-137 -137v66q0 17 -12.5 29.5t-29.5 12.5
t-29 -12.5t-12 -29.5v-208h208q17 0 29.5 12.5t12.5 29.5t-12.5 29t-29.5 12h-66zM375 50v208h-203q-17 0 -29.5 -12t-12.5 -29t12.5 -29.5t29.5 -12.5h61l-137 -137q-12 -12 -12 -29.5t12 -29.5t29 -12q15 0 27 12l140 142v-71q0 -17 12 -29.5t29 -12.5t29.5 12.5
t12.5 29.5zM375 300v94q-22 -11 -39 -11h-44v-41q0 -21 -12 -42h95zM417 258v-96q21 13 44 13h39v44q0 32 30 39h-113zM419 92q0 -17 12.5 -29.5t29.5 -12.5h164v167q0 17 -12.5 29t-29.5 12t-29 -12t-12 -29v-84h-81q-17 0 -29.5 -12t-12.5 -29z" />
    <glyph glyph-name="glyph20" unicode="&#xe014;" horiz-adv-x="667" 
d="M88 258h204v-208q0 -18 -10 -30t-27 -12t-29.5 12.5t-12.5 29.5v71l-142 -142q-12 -12 -29 -12q-18 0 -30 12t-12 29.5t12 29.5l137 137h-61q-17 0 -29 12.5t-12 29.5t12 29t29 12zM125 342q-17 0 -29.5 12t-12.5 29v167h167q17 0 29.5 -12.5t12.5 -29.5t-12.5 -29
t-29.5 -12h-83v-84q0 -17 -12.5 -29t-29.5 -12zM542 258q17 0 29 -12t12 -29v-167h-166q-17 0 -29.5 12.5t-12.5 29.5t12.5 29t29.5 12h83v84q0 17 12.5 29t29.5 12zM596 621q12 12 29 12t29 -12t12 -29.5t-12 -29.5l-137 -137h66q17 0 29.5 -12.5t12.5 -29.5t-12.5 -29
t-29.5 -12h-208v208q0 17 12.5 29.5t29.5 12.5t29 -12.5t12 -29.5v-66z" />
    <glyph glyph-name="glyph21" unicode="&#xe015;" horiz-adv-x="951" 
d="M927 359q25 -24 25 -58.5t-25 -59.5l-393 -392q-25 -25 -58 -25q-34 0 -59 25l-393 392q-25 25 -25 59.5t25 58.5l393 392q25 25 59 25q33 0 58 -25zM684 133q16 0 29 13l155 154l-155 154q-13 13 -29 13q-17 0 -30 -13q-12 -12 -12 -29t12 -29l54 -54h-191v191l54 -54
q12 -12 30 -12q17 0 29 12t12 29.5t-12 29.5l-154 154l-155 -154q-12 -12 -12 -29.5t12 -29.5t30 -12q17 0 29 12l54 54v-191h-191l54 54q12 12 12 29t-12 29q-13 13 -30 13q-16 0 -29 -13l-155 -154l155 -154q13 -13 29 -13q17 0 30 13q12 12 12 29t-12 29l-54 54h191v-191
l-54 54q-12 12 -29 12q-18 0 -30 -12t-12 -29.5t12 -29.5l155 -154l154 154q12 12 12 29.5t-12 29.5t-29 12q-18 0 -30 -12l-54 -54v191h191l-54 -54q-12 -12 -12 -29t12 -29q13 -13 30 -13zM612 217h-53v-53q20 11 42 11q0 22 11 42zM339 217q12 -22 12 -42q21 0 41 -11v53
h-53zM339 383h53v53q-20 -11 -41 -11q0 -20 -12 -42zM612 383q-11 20 -11 42q-22 0 -42 11v-53h53z" />
    <glyph glyph-name="glyph22" unicode="&#xe016;" horiz-adv-x="784" 
d="M630 454l154 -154l-154 -154q-13 -13 -29 -13q-17 0 -30 13q-12 12 -12 29t12 29l54 54h-191v-191l54 54q12 12 29.5 12t29.5 -12t12 -29.5t-12 -29.5l-155 -154l-154 154q-12 12 -12 29.5t12 29.5t29.5 12t29.5 -12l54 -54v191h-191l53 -54q12 -12 12 -29t-12 -29
q-13 -13 -29 -13q-17 0 -30 13l-154 154l154 154q12 12 29.5 12t29.5 -12t12 -29t-12 -29l-53 -54h191v191l-54 -54q-12 -12 -29.5 -12t-29.5 12t-12 29.5t12 29.5l154 154l155 -154q12 -12 12 -29.5t-12 -29.5t-30 -12q-17 0 -29 12l-54 54v-191h191l-54 54q-12 12 -12 29
t12 29t29.5 12t29.5 -12z" />
    <glyph glyph-name="glyph23" unicode="&#xe017;" horiz-adv-x="958" 
d="M625 633q51 0 88 -37t37 -88v-7q90 -23 149 -102t59 -182q0 -121 -85 -206.5t-206 -85.5h-42q-48 0 -83 32l-120 -120q-37 -37 -89 -37q-51 0 -88 37t-37 88l1 8q-90 23 -149.5 102.5t-59.5 181.5q0 121 85.5 206t206.5 85h41q48 0 83 -32l121 121q36 36 88 36zM667 8
q86 0 147 61.5t61 147.5t-55 147t-132 61h-87l53 54q12 12 12 29.5t-12 29.5t-29 12t-29 -12l-155 -155l155 -154q12 -12 29 -12t29 12t12 29.5t-12 29.5l-53 54h87q43 0 73.5 -36.5t30.5 -88.5t-36.5 -88.5t-88.5 -36.5h-42q-17 0 -29.5 -12.5t-12.5 -29.5t12.5 -29.5
t29.5 -12.5h42zM250 175q0 34 24.5 58.5t58.5 24.5q35 0 59 -24l155 -155q9 24 30 39t48 15h42q34 0 58.5 24.5t24.5 59.5q0 30 -15 53.5t-37 28.5q10 -17 10 -41q0 -34 -24.5 -58.5t-58.5 -24.5q-35 0 -59 24l-155 155q-9 -24 -30 -39t-48 -15h-41q-35 0 -59.5 -24.5
t-24.5 -58.5q0 -30 15 -53.5t37 -28.5q-10 17 -10 40zM375 383q0 17 -12.5 29.5t-29.5 12.5h-41q-86 0 -147.5 -61t-61.5 -147t55.5 -147.5t132.5 -61.5h87l-54 -54q-12 -12 -12 -29t12 -29q13 -13 29 -13q17 0 30 13l154 154l-154 154q-13 13 -30 13q-16 0 -29 -13
q-12 -12 -12 -29t12 -29l54 -54h-87q-43 0 -73.5 36.5t-30.5 88.5t36.5 88.5t88.5 36.5h41q17 0 29.5 12t12.5 29z" />
    <glyph glyph-name="glyph24" unicode="&#xe018;" 
d="M562 508q77 0 132.5 -61t55.5 -147t-61 -147t-147 -61q-17 0 -29.5 12t-12.5 29t12.5 29.5t29.5 12.5q52 0 88.5 36.5t36.5 88.5t-31 88.5t-74 36.5h-86l53 -54q12 -12 12 -29.5t-12 -29.5t-29 -12t-29 12l-155 155l155 154q12 12 29 12t29 -12t12 -29.5t-12 -29.5
l-53 -54h86zM221 288q12 12 29 12t29 -12l155 -155l-155 -154q-12 -12 -29 -12t-29 12t-12 29.5t12 29.5l53 54h-86q-77 0 -132.5 61t-55.5 147t61 147t147 61q17 0 29.5 -12t12.5 -29t-12.5 -29.5t-29.5 -12.5q-52 0 -88.5 -36.5t-36.5 -88.5t31 -88.5t74 -36.5h86l-53 54
q-12 12 -12 29.5t12 29.5z" />
    <glyph glyph-name="glyph25" unicode="&#xe019;" horiz-adv-x="805" 
d="M420 -75q-51 0 -88 37t-37 88q0 9 1 16t4 15t5.5 13t9 17.5t11.5 21.5h-201q-52 0 -88.5 36.5t-36.5 88.5t36.5 88.5t88.5 36.5h201q-4 9 -11 21.5t-9.5 17.5t-5.5 13.5t-4 15.5t-1 16q0 52 36 88q35 35 88.5 35t88.5 -35l297 -297l-297 -296q-37 -37 -88 -37zM125 300
q-17 0 -29.5 -12.5t-12.5 -29.5t12.5 -29t29.5 -12h402l-137 -138q-12 -12 -12 -29t12 -29t29.5 -12t29.5 12l238 237l-238 238q-12 12 -29.5 12t-29.5 -12t-12 -29q0 -18 12 -30l137 -137h-402z" />
    <glyph glyph-name="glyph26" unicode="&#xe01a;" horiz-adv-x="704" 
d="M319 526q25 25 59 25t59 -25l267 -268l-267 -267q-24 -24 -59 -24t-59 24q-25 25 -25 59.5t25 58.5l66 66h-302q-35 0 -59 24.5t-24 58.5q0 35 24.5 59.5t58.5 24.5h302l-66 66q-25 25 -25 59.5t25 58.5z" />
    <glyph glyph-name="glyph27" unicode="&#xe01b;" horiz-adv-x="517" 
d="M262 496q12 12 29.5 12t29.5 -12l196 -196l-196 -196q-12 -12 -29 -12q-18 0 -30 12t-12 29.5t12 29.5l96 95h-316q-17 0 -29.5 12.5t-12.5 29.5t12.5 29.5t29.5 12.5h316l-96 95q-12 12 -12 29.5t12 29.5z" />
    <glyph glyph-name="glyph28" unicode="&#xe01c;" 
d="M42 425q-17 0 -29.5 12.5t-12.5 29.5t12.5 29t29.5 12h146q73 0 126 -55q-26 -28 -49 -70q-32 42 -77 42h-146zM362 295l-20 -58q-26 -80 -82 -133.5t-114 -53.5h-104q-17 0 -29.5 12.5t-12.5 29.5t12.5 29t29.5 12h104q26 0 62 37t55 93l20 59q26 79 93 132.5t138 53.5
h76l-53 54q-12 12 -12 29.5t12 29.5t29.5 12t29.5 -12l154 -154l-154 -155q-12 -12 -30 -12q-17 0 -29 12t-12 29.5t12 29.5l53 54h-76q-43 0 -89 -39t-63 -91zM537 246q12 12 29.5 12t29.5 -12l154 -154l-154 -155q-12 -12 -30 -12q-17 0 -29 12t-12 29.5t12 29.5l53 54
h-97q-95 0 -157 80q28 42 45 91q11 -39 42 -63.5t70 -24.5h97l-53 54q-12 12 -12 29.5t12 29.5z" />
    <glyph glyph-name="glyph29" unicode="&#xe01d;" horiz-adv-x="542" 
d="M500 467q17 0 29.5 -13t12.5 -29t-13 -29l-258 -263l-259 263q-12 12 -12 29t12.5 29.5t29.5 12.5h458z" />
    <glyph glyph-name="glyph30" unicode="&#xe01e;" horiz-adv-x="542" 
d="M42 175q-17 0 -29.5 13t-12.5 29q0 17 12 29l259 262l258 -262q13 -13 13 -29t-12.5 -29t-29.5 -13h-458z" />
    <glyph glyph-name="glyph31" unicode="&#xe01f;" horiz-adv-x="792" 
d="M229 675q0 51 37 88t88 37q52 0 89 -37l193 -193q25 -9 45 -29q111 -111 111 -261q0 -164 -116 -280q-54 -53 -118 -82q4 -15 4 -35q0 -51 -36.5 -88t-87.5 -37q-52 0 -89 37l-195 195q-24 9 -43 28q-111 111 -111 261q0 164 116 280q54 54 118 82q-5 18 -5 34zM411 -32
q119 4 206 91q91 91 91 221q0 116 -86 202q-12 12 -29 12q-18 0 -30 -12t-12 -29.5t12 -29.5q34 -34 48 -66.5t14 -76.5q0 -95 -67 -162q-60 -60 -143 -66l52 52q12 12 12 29.5t-12 29.5t-29 12q-18 0 -30 -12l-154 -155l154 -154q12 -12 30 -12q17 0 29 12t12 29.5
t-12 29.5zM379 591q-119 -6 -204 -91q-92 -92 -92 -221q0 -116 86 -202q12 -12 30 -12q17 0 29 12t12 29.5t-12 29.5q-34 34 -47.5 66t-13.5 77q0 95 67 162q61 61 144 67l-53 -54q-12 -12 -12 -29t12 -29q13 -13 29 -13q17 0 30 13l154 154l-154 154q-13 13 -30 13
q-16 0 -29 -13q-12 -12 -12 -29t12 -29zM354 342q-33 0 -57 22.5t-26 54.5l-8 -7q-55 -55 -55 -133q0 -36 11 -60.5t39 -52.5q30 -30 23 -71l98 97q25 25 59 25q33 0 57 -22.5t26 -54.5l7 8q55 55 55 132q0 36 -10.5 61t-38.5 53t-23 70l-98 -98q-24 -24 -59 -24z" />
    <glyph glyph-name="glyph32" unicode="&#xe020;" horiz-adv-x="625" 
d="M625 280q0 -129 -92 -221q-87 -87 -205 -91l56 -55q12 -12 12 -29.5t-12 -29.5t-30 -12q-17 0 -29 12l-155 154l155 155q12 12 29.5 12t29.5 -12t12 -29.5t-12 -29.5l-52 -52q83 6 143 66q67 67 67 162q0 44 -14 76.5t-48 66.5q-12 12 -12 29.5t12 29.5t29.5 12t29.5 -12
q86 -86 86 -202zM83 279q0 -44 14 -76.5t48 -66.5q12 -12 12 -29.5t-12 -29.5t-29 -12q-18 0 -30 12q-86 86 -86 202q0 129 92 221q85 85 204 91l-55 55q-12 12 -12 29t12 29t29.5 12t29.5 -12l155 -154l-155 -154q-13 -13 -29 -13q-17 0 -30 13q-12 12 -12 29t12 29l53 54
q-83 -6 -144 -67q-67 -67 -67 -162z" />
    <glyph glyph-name="glyph33" unicode="&#xe021;" horiz-adv-x="542" 
d="M42 342q-17 0 -29.5 12t-12.5 29t12 29l259 263l258 -263q13 -13 13 -29t-12.5 -28.5t-29.5 -12.5h-458zM500 258q17 0 29.5 -12.5t12.5 -28.5t-13 -29l-258 -263l-259 263q-12 12 -12 29q0 16 12.5 28.5t29.5 12.5h458z" />
    <glyph glyph-name="glyph34" unicode="&#xe022;" horiz-adv-x="667" 
d="M333 -75q-52 0 -88.5 36.5t-36.5 88.5v198q-36 -32 -86.5 -30.5t-84.5 35.5q-37 37 -37 88.5t37 88.5l296 297l297 -297q37 -37 37 -88.5t-37 -88.5q-34 -34 -85 -35.5t-87 30.5v-198q0 -52 -36.5 -88.5t-88.5 -36.5zM292 449v-399q0 -17 12 -29.5t29 -12.5t29.5 12.5
t12.5 29.5v399l137 -137q12 -12 29.5 -12t29.5 12t12 29.5t-12 29.5l-238 238l-238 -238q-12 -12 -12 -29.5t12 -29.5t29.5 -12t29.5 12z" />
    <glyph glyph-name="glyph35" unicode="&#xe023;" horiz-adv-x="583" 
d="M292 668l267 -267q25 -25 25 -59t-25 -59t-59 -25t-59 25l-66 66v-302q0 -35 -24.5 -59t-58.5 -24q-35 0 -59.5 24.5t-24.5 58.5v302l-66 -66q-25 -25 -59 -25t-59 25t-25 59t25 59z" />
    <glyph glyph-name="glyph36" unicode="&#xe024;" horiz-adv-x="417" 
d="M208 567l196 -196q12 -12 12 -29.5t-12 -29.5t-29 -12t-29 12l-96 96v-316q0 -17 -12.5 -29.5t-29.5 -12.5t-29 12.5t-12 29.5v316l-96 -96q-12 -12 -29.5 -12t-29.5 12t-12 29.5t12 29.5z" />
    <glyph glyph-name="glyph37" unicode="&#xe025;" horiz-adv-x="667" 
d="M333 633q138 0 236 -97.5t98 -235.5v-21q0 -52 -36.5 -88.5t-88.5 -36.5q-62 0 -100 50q-45 -50 -109 -50q-60 0 -102.5 43t-42.5 103t42.5 103t102.5 43q47 0 86 -29q10 29 39 29q17 0 29.5 -12.5t12.5 -29.5v-125q0 -17 12.5 -29t29.5 -12t29 12t12 29v21
q0 104 -73.5 177t-176.5 73t-176.5 -73t-73.5 -177t73.5 -177t176.5 -73q78 0 141 43q14 10 31 6.5t27 -17.5t6.5 -31t-17.5 -27q-83 -57 -188 -57q-138 0 -235.5 97.5t-97.5 235.5t97.5 235.5t235.5 97.5zM333 238q26 0 44.5 18.5t18.5 43.5t-18.5 43.5t-44.5 18.5
q-25 0 -43.5 -18t-18.5 -44t18.5 -44t43.5 -18z" />
    <glyph glyph-name="glyph38" unicode="&#xe026;" horiz-adv-x="794" 
d="M311 282q-9 0 -14.5 6.5t-5.5 13.5q0 9 6 15l189 189q25 25 58 25q35 0 60 -25q24 -24 24 -59t-24 -59q-49 -49 -147.5 -147t-147.5 -147q-25 -25 -59 -25t-59 25q-24 24 -24 59t24 59l4 4q-29 38 -29 88l-34 -33q-49 -49 -49 -118t49 -118t118 -49t118 49l294 295
q49 49 49 117.5t-49 117.5t-118 49q-68 0 -117 -49l-189 -189q-31 -31 -31 -73q0 -43 31 -74t73 -31q43 0 74 31l89 88q24 24 24 59q0 34 -25 59l-147 -147q-6 -6 -15 -6zM544 697q104 0 177 -73t73 -177q0 -103 -73 -176l-294 -295q-73 -73 -177 -73t-177 73t-73 177
q0 103 73 176l295 295q73 73 176 73z" />
    <glyph glyph-name="glyph39" unicode="&#xe027;" horiz-adv-x="628" 
d="M228 157q-42 0 -73 30.5t-31 73.5q0 44 30 74l189 189q49 49 118 49t118 -49t49 -118t-49 -118l-295 -295q-49 -49 -117 -49q-69 0 -118 49t-49 118t49 118l33 33q0 -49 30 -88l-4 -4q-24 -24 -24 -59t24 -59t59 -24t59 24q49 49 147 147.5t147 147.5q24 24 24 59t-24 59
q-25 24 -59.5 24t-58.5 -24l-189 -189q-6 -6 -6 -15t6 -15t15 -6t15 6l147 147q25 -25 25 -59q0 -33 -25 -58l-88 -89q-30 -30 -74 -30z" />
    <glyph glyph-name="glyph40" unicode="&#xe028;" horiz-adv-x="874" 
d="M749 -75h-417q-45 0 -92.5 24t-73.5 61q-27 37 -79.5 111t-78.5 111q-8 11 -8 26t7 26l159 222q26 37 73.5 61.5t92.5 24.5h417q52 0 88.5 -36.5t36.5 -88.5v-417q0 -52 -36.5 -88.5t-88.5 -36.5zM92 258q28 -38 77.5 -108t64.5 -91q14 -20 44 -35.5t54 -15.5h417
q17 0 29 12.5t12 29.5v417q0 17 -12 29t-29 12h-417q-24 0 -54 -15t-44 -35q-24 -34 -71 -100t-71 -100zM528 258l111 -110q10 -10 4 -23t-19 -13q-8 0 -15 7l-110 110l-110 -110q-7 -7 -15 -7q-13 0 -19 13t4 23l110 110l-110 111q-9 9 -5 20t14.5 14t20.5 -5l110 -110
l110 110q14 14 28.5 -0.5t0.5 -28.5z" />
    <glyph glyph-name="glyph41" unicode="&#xe029;" horiz-adv-x="832" 
d="M728 592q43 0 73.5 -30.5t30.5 -73.5v-417q0 -43 -30.5 -73.5t-73.5 -30.5h-417q-40 0 -82.5 22t-65.5 54l-159 222q-10 14 0 28q27 37 79.5 111t78.5 111q23 32 66 54.5t83 22.5h417zM632 184l-95 95l95 96q12 12 12 29.5t-12 29.5t-29.5 12t-29.5 -12l-95 -96l-96 96
q-12 12 -29.5 12t-29.5 -12t-12 -29.5t12 -29.5l96 -96l-96 -95q-12 -12 -12 -29.5t12 -29.5q13 -13 30 -13q16 0 29 13l96 95l95 -95q13 -13 30 -13q16 0 29 13q12 12 12 29.5t-12 29.5z" />
    <glyph glyph-name="glyph42" unicode="&#xe02a;" horiz-adv-x="792" 
d="M125 383h458v-250h-458v250zM368 179l132 97l-108 -18l-49 79l-135 -97l110 18zM708 383q35 0 59.5 -24.5t24.5 -58.5v-83q0 -35 -25 -59.5t-59 -24.5q0 -52 -36.5 -88.5t-88.5 -36.5h-458q-52 0 -88.5 36.5t-36.5 88.5v250q0 52 36.5 88.5t88.5 36.5h458
q52 0 88.5 -36.5t36.5 -88.5zM625 133v250q0 17 -12.5 29.5t-29.5 12.5h-458q-17 0 -29.5 -12.5t-12.5 -29.5v-250q0 -17 12.5 -29t29.5 -12h458q17 0 29.5 12t12.5 29z" />
    <glyph glyph-name="glyph43" unicode="&#xe02b;" horiz-adv-x="792" 
d="M292 133q-17 0 -29.5 12.5t-12.5 29.5v167q0 17 12.5 29t29.5 12t29 -12t12 -29v-167q0 -17 -12 -29.5t-29 -12.5zM167 133q-17 0 -29.5 12.5t-12.5 29.5v167q0 17 12.5 29t29.5 12t29 -12t12 -29v-167q0 -17 -12 -29.5t-29 -12.5zM542 133q-17 0 -29.5 12.5t-12.5 29.5
v167q0 17 12.5 29t29.5 12t29 -12t12 -29v-167q0 -17 -12 -29.5t-29 -12.5zM417 133q-17 0 -29.5 12.5t-12.5 29.5v167q0 17 12.5 29t29.5 12t29 -12t12 -29v-167q0 -17 -12 -29.5t-29 -12.5zM708 383q35 0 59.5 -24.5t24.5 -58.5v-83q0 -35 -25 -59.5t-59 -24.5
q0 -52 -36.5 -88.5t-88.5 -36.5h-458q-52 0 -88.5 36.5t-36.5 88.5v250q0 52 36.5 88.5t88.5 36.5h458q52 0 88.5 -36.5t36.5 -88.5zM625 133v250q0 17 -12.5 29.5t-29.5 12.5h-458q-17 0 -29.5 -12.5t-12.5 -29.5v-250q0 -17 12.5 -29t29.5 -12h458q17 0 29.5 12t12.5 29z
" />
    <glyph glyph-name="glyph44" unicode="&#xe02c;" horiz-adv-x="792" 
d="M292 133q-17 0 -29.5 12.5t-12.5 29.5v167q0 17 12.5 29t29.5 12t29 -12t12 -29v-167q0 -17 -12 -29.5t-29 -12.5zM167 133q-17 0 -29.5 12.5t-12.5 29.5v167q0 17 12.5 29t29.5 12t29 -12t12 -29v-167q0 -17 -12 -29.5t-29 -12.5zM417 133q-17 0 -29.5 12.5t-12.5 29.5
v167q0 17 12.5 29t29.5 12t29 -12t12 -29v-167q0 -17 -12 -29.5t-29 -12.5zM708 383q35 0 59.5 -24.5t24.5 -58.5v-83q0 -35 -25 -59.5t-59 -24.5q0 -52 -36.5 -88.5t-88.5 -36.5h-458q-52 0 -88.5 36.5t-36.5 88.5v250q0 52 36.5 88.5t88.5 36.5h458q52 0 88.5 -36.5
t36.5 -88.5zM625 133v250q0 17 -12.5 29.5t-29.5 12.5h-458q-17 0 -29.5 -12.5t-12.5 -29.5v-250q0 -17 12.5 -29t29.5 -12h458q17 0 29.5 12t12.5 29z" />
    <glyph glyph-name="glyph45" unicode="&#xe02d;" horiz-adv-x="792" 
d="M167 133q-17 0 -29.5 12.5t-12.5 29.5v167q0 17 12.5 29t29.5 12t29 -12t12 -29v-167q0 -17 -12 -29.5t-29 -12.5zM708 383q35 0 59.5 -24.5t24.5 -58.5v-83q0 -35 -25 -59.5t-59 -24.5q0 -52 -36.5 -88.5t-88.5 -36.5h-458q-52 0 -88.5 36.5t-36.5 88.5v250
q0 52 36.5 88.5t88.5 36.5h458q52 0 88.5 -36.5t36.5 -88.5zM625 133v250q0 17 -12.5 29.5t-29.5 12.5h-458q-17 0 -29.5 -12.5t-12.5 -29.5v-250q0 -17 12.5 -29t29.5 -12h458q17 0 29.5 12t12.5 29z" />
    <glyph glyph-name="glyph46" unicode="&#xe02e;" horiz-adv-x="792" 
d="M292 133q-17 0 -29.5 12.5t-12.5 29.5v167q0 17 12.5 29t29.5 12t29 -12t12 -29v-167q0 -17 -12 -29.5t-29 -12.5zM167 133q-17 0 -29.5 12.5t-12.5 29.5v167q0 17 12.5 29t29.5 12t29 -12t12 -29v-167q0 -17 -12 -29.5t-29 -12.5zM708 383q35 0 59.5 -24.5t24.5 -58.5
v-83q0 -35 -25 -59.5t-59 -24.5q0 -52 -36.5 -88.5t-88.5 -36.5h-458q-52 0 -88.5 36.5t-36.5 88.5v250q0 52 36.5 88.5t88.5 36.5h458q52 0 88.5 -36.5t36.5 -88.5zM625 133v250q0 17 -12.5 29.5t-29.5 12.5h-458q-17 0 -29.5 -12.5t-12.5 -29.5v-250q0 -17 12.5 -29
t29.5 -12h458q17 0 29.5 12t12.5 29z" />
    <glyph glyph-name="glyph47" unicode="&#xe02f;" horiz-adv-x="629" 
d="M625 100q15 -54 -17 -93.5t-85 -39.5h-417q-53 0 -85 39.5t-17 93.5l103 380q2 8 5 28h-48q-17 0 -29 12.5t-12 29.5t12 29.5t29 12.5h500q17 0 29.5 -12.5t12.5 -29.5t-12.5 -29.5t-29.5 -12.5h-49zM428 508h-233q-1 -28 -8 -49l-43 -160l4 1h333l4 -1zM523 50
q28 0 21 28l-50 185q-7 -5 -13 -5h-333q-7 0 -14 5l-49 -185q-7 -28 21 -28h417z" />
    <glyph glyph-name="glyph48" unicode="&#xe030;" horiz-adv-x="708" 
d="M208 112q0 -8 -6 -14t-14 -6t-14.5 6t-6.5 14v250q0 8 6.5 14.5t14.5 6.5t14 -6.5t6 -14.5v-250zM292 112q0 -8 -6.5 -14t-14.5 -6t-14.5 6t-6.5 14v250q0 8 6.5 14.5t14.5 6.5t14.5 -6.5t6.5 -14.5v-250zM375 112q0 -8 -6.5 -14t-14.5 -6t-14.5 6t-6.5 14v250
q0 8 6.5 14.5t14.5 6.5t14.5 -6.5t6.5 -14.5v-250zM562 550q60 0 103 -43t43 -103v-208q0 -60 -43 -103t-103 -43h-20q0 -52 -36.5 -88.5t-88.5 -36.5h-292q-52 0 -88.5 36.5t-36.5 88.5v542q0 34 24 58.5t59 24.5h375q35 0 59.5 -24.5t24.5 -58.5v-42h20zM83 592v-63
q0 -25 18.5 -43.5t44.5 -18.5q36 0 54 32l7 13l15 -3q14 -2 27.5 5.5t18.5 21.5l5 14h185v42h-375zM458 50v458h-157q-25 -41 -72 -41q-32 -42 -83 -42q-36 0 -63 21v-396q0 -17 12.5 -29.5t29.5 -12.5h292q17 0 29 12.5t12 29.5zM625 196v208q0 26 -18.5 44.5t-44.5 18.5
h-62v-334h62q26 0 44.5 18.5t18.5 44.5z" />
    <glyph glyph-name="glyph49" unicode="&#xe031;" horiz-adv-x="666" 
d="M655 79q19 -21 7.5 -46t-37.5 -25h-131q-14 -55 -59 -90t-102 -35t-101.5 35t-58.5 90h-131q-26 0 -38 26t8 46q3 3 8 9.5t17 29.5t21.5 50.5t17.5 74t8 98.5q0 81 46.5 145.5t120.5 90.5l-1 14q0 34 24 58.5t59 24.5t59.5 -24.5t24.5 -58.5l-2 -14q74 -26 121 -90.5
t47 -145.5q0 -52 8 -98.5t17.5 -74.5t21.5 -50.5t17 -29.5t8 -10zM333 508q-69 0 -117.5 -48.5t-48.5 -117.5q0 -49 -4 -84h341q-5 43 -5 84q0 69 -49 117.5t-117 48.5zM333 -33q49 0 72 41h-143q23 -41 71 -41zM117 92h433q-25 52 -39 125h-355q-14 -73 -39 -125z" />
    <glyph glyph-name="glyph50" unicode="&#xe032;" 
d="M625 675q52 0 88.5 -36.5t36.5 -88.5v-417q0 -52 -30 -88.5t-74 -36.5h-28q-13 -36 -45.5 -59.5t-72.5 -23.5h-375q-52 0 -88.5 36.5t-36.5 88.5v458q0 16 12 30l125 125q12 12 30 12h458zM125 8h42v459h-84v-417q0 -17 12.5 -29.5t29.5 -12.5zM542 50v375
q0 17 -12.5 29.5t-29.5 12.5h-292v-459h292q17 0 29.5 12.5t12.5 29.5zM667 133v417q0 17 -12.5 29.5t-29.5 12.5h-441l-42 -42h358q52 0 88.5 -36.5t36.5 -88.5v-333h21q6 0 13.5 11.5t7.5 29.5z" />
    <glyph glyph-name="glyph51" unicode="&#xe033;" horiz-adv-x="583" 
d="M458 717q52 0 88.5 -36.5t36.5 -88.5v-584q0 -41 -19.5 -62.5t-46.5 -21.5q-34 0 -64 30l-132 133q-12 12 -29.5 12t-29.5 -12l-132 -133q-32 -31 -65.5 -30t-51.5 31q-13 23 -13 53v584q0 52 36.5 88.5t88.5 36.5h333zM125 633q-17 0 -29.5 -12t-12.5 -29v-413l102 94
q44 41 106.5 41t106.5 -41l102 -94v413q0 17 -12.5 29t-29.5 12h-333zM380 146l120 -120v96l-130 120q-32 29 -78 29t-78 -29l-131 -120v-96l120 120q36 36 89 36q52 0 88 -36z" />
    <glyph glyph-name="glyph52" unicode="&#xe034;" 
d="M625 508q52 0 88.5 -36.5t36.5 -88.5v-291q0 -52 -36.5 -88.5t-88.5 -36.5h-500q-52 0 -88.5 36.5t-36.5 88.5v291q0 52 36.5 88.5t88.5 36.5q0 52 36.5 88.5t88.5 36.5h250q52 0 88.5 -36.5t36.5 -88.5zM250 550q-17 0 -29.5 -12.5t-12.5 -29.5h334q0 17 -12.5 29.5
t-29.5 12.5h-250zM667 92v41h-584v-41q0 -17 12.5 -29.5t29.5 -12.5h500q17 0 29.5 12.5t12.5 29.5zM83 175h584v208q0 17 -12.5 29.5t-29.5 12.5h-500q-17 0 -29.5 -12.5t-12.5 -29.5v-208zM417 300q17 0 29 -12.5t12 -29.5t-12 -29t-29 -12h-84q-17 0 -29 12t-12 29
t12 29.5t29 12.5h84z" />
    <glyph glyph-name="glyph53" unicode="&#xe035;" horiz-adv-x="752" 
d="M727 641q39 -39 19 -90q-108 -271 -390 -438q-13 -8 -23 -10q-13 -83 -75.5 -136.5t-147.5 -53.5q-19 0 -37 3l-61 9l-9 61q-16 101 44 178q54 69 144 83q4 14 8 22q167 282 438 390q15 6 31 6q35 0 59 -24zM110 -3q57 0 97 35.5t46 90.5l-43 43q-62 -7 -98.5 -55
t-26.5 -113q8 -1 25 -1zM314 184q30 17 74 49q-67 67 -68 69q-28 -39 -49 -75zM422 258q170 132 247 324q-194 -77 -325 -248z" />
    <glyph glyph-name="glyph54" unicode="&#xe036;" horiz-adv-x="917" 
d="M792 -33h-667q-52 0 -88.5 36.5t-36.5 88.5v416q0 52 36.5 88.5t88.5 36.5h667q52 0 88.5 -36.5t36.5 -88.5v-416q0 -52 -36.5 -88.5t-88.5 -36.5zM125 550q-17 0 -29.5 -12.5t-12.5 -29.5v-416q0 -17 12.5 -29.5t29.5 -12.5h667q17 0 29 12.5t12 29.5v416q0 17 -12 29.5
t-29 12.5h-667zM375 175h-167q-17 0 -29 12.5t-12 29.5t12 29t29 12h167q17 0 29.5 -12t12.5 -29t-12.5 -29.5t-29.5 -12.5zM375 342h-167q-17 0 -29 12t-12 29t12 29.5t29 12.5h167q17 0 29.5 -12.5t12.5 -29.5t-12.5 -29t-29.5 -12zM542 362q0 84 83 84t83 -84
q0 -83 -83 -83t-83 83zM625 244q45 0 74.5 -18t29.5 -42q0 -12 -30 -21t-74 -9q-47 0 -75.5 9t-28.5 21q0 24 28.5 42t75.5 18z" />
    <glyph glyph-name="glyph55" unicode="&#xe037;" horiz-adv-x="583" 
d="M458 -75h-333q-53 0 -89 36t-36 89v500q0 53 36 89t89 36h333q53 0 89 -36t36 -89v-500q0 -53 -36 -89t-89 -36zM125 592q-19 0 -30.5 -11.5t-11.5 -30.5v-500q0 -19 11.5 -30.5t30.5 -11.5h333q19 0 30.5 11.5t11.5 30.5v500q0 19 -11.5 30.5t-30.5 11.5h-333zM125 342
q0 41 42 41q41 0 41 -41q0 -42 -41 -42q-42 0 -42 42zM250 342q0 41 42 41q41 0 41 -41q0 -42 -41 -42q-42 0 -42 42zM375 342q0 41 42 41q41 0 41 -41q0 -42 -41 -42q-42 0 -42 42zM125 217q0 41 42 41q41 0 41 -41q0 -42 -41 -42q-42 0 -42 42zM250 217q0 41 42 41
q41 0 41 -41q0 -42 -41 -42q-42 0 -42 42zM375 217q0 41 42 41q41 0 41 -41q0 -42 -41 -42q-42 0 -42 42zM125 92q0 41 42 41q41 0 41 -41q0 -42 -41 -42q-42 0 -42 42zM250 92q0 41 42 41q41 0 41 -41q0 -42 -41 -42q-42 0 -42 42zM375 92q0 41 42 41q41 0 41 -41
q0 -42 -41 -42q-42 0 -42 42zM417 508h-250v-41h250v41zM458 550v-125h-333v125h333z" />
    <glyph glyph-name="glyph56" unicode="&#xe038;" 
d="M667 542q37 -13 60 -45t23 -72v-375q0 -52 -36.5 -88.5t-88.5 -36.5h-500q-52 0 -88.5 36.5t-36.5 88.5v375q0 40 23 72t60 45v8q0 52 36.5 88.5t88.5 36.5t88.5 -36.5t36.5 -88.5h84q0 52 36.5 88.5t88.5 36.5t88.5 -36.5t36.5 -88.5v-8zM500 550v-83q0 -17 12.5 -29.5
t29.5 -12.5t29 12.5t12 29.5v83q0 17 -12 29.5t-29 12.5t-29.5 -12.5t-12.5 -29.5zM167 550v-83q0 -17 12 -29.5t29 -12.5t29.5 12.5t12.5 29.5v83q0 17 -12.5 29.5t-29.5 12.5t-29 -12.5t-12 -29.5zM667 50v250h-584v-250q0 -17 12.5 -29.5t29.5 -12.5h500q17 0 29.5 12.5
t12.5 29.5zM667 342v83q0 17 -12.5 29.5t-29.5 12.5q0 -35 -24.5 -59.5t-58.5 -24.5t-59 24.5t-25 59.5h-166q0 -35 -25 -59.5t-59 -24.5t-58.5 24.5t-24.5 59.5q-17 0 -29.5 -12.5t-12.5 -29.5v-83h584z" />
    <glyph glyph-name="glyph57" unicode="&#xe039;" 
d="M667 542q37 -13 60 -45t23 -72v-375q0 -52 -36.5 -88.5t-88.5 -36.5h-500q-52 0 -88.5 36.5t-36.5 88.5v375q0 40 23 72t60 45v8q0 52 36.5 88.5t88.5 36.5t88.5 -36.5t36.5 -88.5h84q0 52 36.5 88.5t88.5 36.5t88.5 -36.5t36.5 -88.5v-8zM500 550v-83q0 -17 12.5 -29.5
t29.5 -12.5t29 12.5t12 29.5v83q0 17 -12 29.5t-29 12.5t-29.5 -12.5t-12.5 -29.5zM167 550v-83q0 -17 12 -29.5t29 -12.5t29.5 12.5t12.5 29.5v83q0 17 -12.5 29.5t-29.5 12.5t-29 -12.5t-12 -29.5zM667 50v250h-584v-250q0 -17 12.5 -29.5t29.5 -12.5h500q17 0 29.5 12.5
t12.5 29.5z" />
    <glyph glyph-name="glyph58" unicode="&#xe03a;" horiz-adv-x="833" 
d="M708 -33h-583q-52 0 -88.5 36.5t-36.5 88.5v333q0 52 36.5 88.5t88.5 36.5h66l42 42q18 18 46 29.5t54 11.5h167q26 0 54.5 -11.5t46.5 -29.5l41 -42h66q52 0 88.5 -36.5t36.5 -88.5v-333q0 -52 -36.5 -88.5t-88.5 -36.5zM125 467q-17 0 -29.5 -12.5t-12.5 -29.5v-333
q0 -17 12.5 -29.5t29.5 -12.5h583q17 0 29.5 12.5t12.5 29.5v333q0 17 -12.5 29.5t-29.5 12.5h-83q-17 0 -29 12l-54 54q-17 17 -42 17h-167q-24 0 -41 -17l-54 -54q-12 -12 -30 -12h-83zM417 383q-43 0 -74 -30.5t-31 -73.5t31 -73.5t74 -30.5t73.5 30.5t30.5 73.5
t-30.5 73.5t-73.5 30.5zM417 425q61 0 103 -42.5t42 -103.5q0 -60 -42.5 -103t-102.5 -43q-61 0 -103.5 43t-42.5 103q0 61 42.5 103.5t103.5 42.5zM667 438q22 0 38 -16t16 -39t-15.5 -38.5t-38.5 -15.5t-39 16t-16 38q0 23 16 39t39 16z" />
    <glyph glyph-name="glyph59" unicode="&#xe03b;" horiz-adv-x="833" 
d="M708 550q52 0 88.5 -36.5t36.5 -88.5v-333q0 -52 -36.5 -88.5t-88.5 -36.5h-583q-52 0 -88.5 36.5t-36.5 88.5v333q0 52 36.5 88.5t88.5 36.5h66l42 42q18 18 46 29.5t54 11.5h167q26 0 54.5 -11.5t46.5 -29.5l41 -42h66zM417 133q60 0 102.5 43t42.5 103q0 61 -42 103.5
t-103 42.5t-103.5 -42.5t-42.5 -103.5q0 -60 42.5 -103t103.5 -43zM667 329q23 0 38.5 15.5t15.5 38.5t-16 39t-38 16q-23 0 -39 -16t-16 -39q0 -22 16 -38t39 -16z" />
    <glyph glyph-name="glyph60" unicode="&#xe03c;" horiz-adv-x="708" 
d="M354 -54q-146 0 -250 104t-104 250t104 250t250 104t250 -104t104 -250t-104 -250t-250 -104zM354 571q-112 0 -191.5 -79.5t-79.5 -191.5t79.5 -191.5t191.5 -79.5t191.5 79.5t79.5 191.5t-79.5 191.5t-191.5 79.5zM354 446q-17 0 -25 -2l169 -170q2 8 2 26
q0 60 -43 103t-103 43zM354 488q77 0 132.5 -55.5t55.5 -132.5q0 -52 -29 -99l-258 257q48 30 99 30zM211 326q-3 -12 -3 -26q0 -60 43 -103t103 -43q18 0 26 2zM196 400l258 -258q-48 -30 -100 -30q-78 0 -132.5 55t-54.5 133q0 53 29 100z" />
    <glyph glyph-name="glyph61" unicode="&#xe03d;" horiz-adv-x="667" 
d="M333 633q138 0 236 -97.5t98 -235.5t-98 -235.5t-236 -97.5t-235.5 97.5t-97.5 235.5t97.5 235.5t235.5 97.5zM125 300q0 -86 61 -147t147 -61q50 0 96 24l-280 280q-24 -46 -24 -96zM517 204q25 48 25 96q0 86 -61.5 147t-147.5 61q-49 0 -95 -24z" />
    <glyph glyph-name="glyph62" unicode="&#xe03e;" 
d="M625 675q52 0 88.5 -37.5t36.5 -87.5v-417q0 -17 -12.5 -29t-29.5 -12h-666q-17 0 -29.5 12t-12.5 29v125q0 45 27 78l167 209q31 38 82.5 44.5t90.5 -22.5l69 -53l92 114q38 47 97 47zM667 550q0 16 -13 29t-29 13q-20 0 -33 -16l-116 -145q-11 -14 -27 -16t-30 8
l-102 77q-13 10 -30.5 8t-27.5 -15l-167 -209q-9 -11 -9 -26v-83h584v375zM708 -75h-666q-17 0 -29.5 12.5t-12.5 29.5t12.5 29t29.5 12h666q17 0 29.5 -12t12.5 -29t-12.5 -29.5t-29.5 -12.5z" />
    <glyph glyph-name="glyph63" unicode="&#xe03f;" 
d="M708 550v-417h-666v125q0 30 18 52l167 209q21 26 54.5 30t60.5 -16l102 -76l116 145q22 27 56 31t61 -18q31 -24 31 -65zM708 8q17 0 29.5 -12t12.5 -29t-12.5 -29.5t-29.5 -12.5h-666q-17 0 -29.5 12.5t-12.5 29.5t12.5 29t29.5 12h666z" />
    <glyph glyph-name="glyph64" unicode="&#xe040;" horiz-adv-x="667" 
d="M542 592q52 0 88.5 -36.5t36.5 -88.5v-375h-667v250q0 52 36.5 88.5t88.5 36.5q47 0 83 -33v199q0 52 36.5 88.5t88.5 36.5t88.5 -36.5t36.5 -88.5v-74q36 33 84 33zM333 675q-17 0 -29 -12.5t-12 -29.5v-458h83v458q0 17 -12.5 29.5t-29.5 12.5zM167 175v167
q0 17 -12.5 29t-29.5 12t-29.5 -12t-12.5 -29v-167h84zM583 175v292q0 17 -12 29t-29 12t-29.5 -12t-12.5 -29v-292h83zM625 -75h-583q-17 0 -29.5 12.5t-12.5 29.5t12.5 29t29.5 12h583q17 0 29.5 -12t12.5 -29t-12.5 -29.5t-29.5 -12.5z" />
    <glyph glyph-name="glyph65" unicode="&#xe041;" horiz-adv-x="667" 
d="M417 633v-500h-167v500q0 35 24.5 59.5t58.5 24.5q35 0 59.5 -24.5t24.5 -59.5zM625 467v-334h-167v334q0 34 24.5 58.5t59.5 24.5q34 0 58.5 -24t24.5 -59zM208 342v-209h-166v209q0 34 24 58.5t59 24.5t59 -24.5t24 -58.5zM625 8q17 0 29.5 -12t12.5 -29t-12.5 -29.5
t-29.5 -12.5h-583q-17 0 -29.5 12.5t-12.5 29.5t12.5 29t29.5 12h583z" />
    <glyph glyph-name="glyph66" unicode="&#xe042;" 
d="M125 92q-37 0 -67.5 20.5t-45 50t-12 66t26.5 66.5l167 208q31 38 82.5 45t90.5 -23l69 -52l91 113q38 47 98 47q50 0 86 -34.5t39 -79.5t-27 -89l-167 -208q-31 -38 -82 -44.5t-91 22.5l-70 52l-91 -113q-38 -47 -97 -47zM292 467q-20 0 -33 -16l-167 -208
q-16 -22 -3.5 -45t36.5 -23q20 0 33 16l141 177l134 -101q13 -10 30.5 -8t27.5 15l167 208q16 22 3.5 45t-36.5 23q-20 0 -33 -16l-141 -176l-134 100q-10 9 -25 9zM667 -75h-584q-17 0 -29 12.5t-12 29.5t12 29t29 12h584q17 0 29 -12t12 -29t-12 -29.5t-29 -12.5z" />
    <glyph glyph-name="glyph67" unicode="&#xe043;" horiz-adv-x="667" 
d="M31 152q-27 22 -31 56t18 61l167 208q21 26 54.5 30.5t60.5 -15.5l102 -77l116 145q22 27 56 31t61 -18t31 -56t-18 -61l-166 -208q-21 -26 -54.5 -30.5t-60.5 15.5l-102 77l-117 -145q-24 -32 -65 -32q-28 0 -52 19zM42 -75q-17 0 -29.5 12.5t-12.5 29.5t12.5 29
t29.5 12h583q17 0 29.5 -12t12.5 -29t-12.5 -29.5t-29.5 -12.5h-583z" />
    <glyph glyph-name="glyph68" unicode="&#xe044;" horiz-adv-x="722" 
d="M264 675q0 34 24.5 58.5t58.5 24.5h8q174 -15 311 -129q27 -23 29.5 -59.5t-23.5 -63.5l-24 -23q74 -108 74 -238q0 -147 -92 -262q-24 -29 -65 -31q-19 0 -37 9q-86 -56 -185 -56q-142 0 -242.5 101t-100.5 243q0 119 74.5 212.5t189.5 120.5v93zM343 -12q85 0 155 52
l-192 198v267q-95 -14 -159 -86.5t-64 -169.5q0 -108 76.5 -184.5t183.5 -76.5zM347 299l265 266q-116 97 -265 110v-376zM356 246l209 -211q74 93 74 210q0 118 -74 211z" />
    <glyph glyph-name="glyph69" unicode="&#xe045;" horiz-adv-x="675" 
d="M359 218l234 234q82 -103 82 -235q0 -109 -58 -200q-9 -14 -25.5 -15.5t-28.5 10.5zM250 200l216 -217q-77 -58 -174 -58q-121 0 -206.5 86t-85.5 207q0 110 72 192t178 97v-307zM555 541l-222 -223v315q0 17 12.5 28t29.5 8q98 -18 177 -73q14 -10 14.5 -26.5
t-11.5 -28.5z" />
    <glyph glyph-name="glyph70" unicode="&#xe046;" horiz-adv-x="510" 
d="M510 92q0 -51 -37 -88t-88 -37q-52 0 -88 36l-297 297l297 297q35 35 88.5 35t88.5 -35q36 -36 36 -89q0 -52 -36 -88l-120 -120l120 -120q36 -36 36 -88zM118 300l238 -238q12 -12 29.5 -12t29.5 12t12 30q0 17 -12 29l-179 179l179 179q12 12 12 29q0 18 -12 30
t-29.5 12t-29.5 -12z" />
    <glyph glyph-name="glyph71" unicode="&#xe047;" horiz-adv-x="410" 
d="M385 567q25 -25 25 -59t-25 -59l-149 -149l149 -149q25 -25 25 -59t-25 -59t-59 -25t-59 25l-267 267l267 267q24 25 59 25t59 -25z" />
    <glyph glyph-name="glyph72" unicode="&#xe048;" horiz-adv-x="510" 
d="M125 -33q-51 0 -88 37t-37 88t37 88l120 120l-120 120q-37 37 -37 88q0 52 37 89q35 35 88 35t88 -35l297 -297l-297 -297q-36 -36 -88 -36zM125 550q-17 0 -29.5 -12.5t-12.5 -29.5q0 -16 13 -29l178 -179l-178 -179q-13 -13 -13 -29q0 -17 13 -30q12 -12 29 -12t29 12
l238 238l-238 238q-12 12 -29 12z" />
    <glyph glyph-name="glyph73" unicode="&#xe049;" horiz-adv-x="410" 
d="M24 567q24 25 59 25t59 -25l268 -267l-268 -267q-25 -25 -59 -25t-59 25t-25 59t25 59l150 149l-150 149q-25 25 -25 59t25 59z" />
    <glyph glyph-name="glyph74" unicode="&#xe04a;" horiz-adv-x="667" 
d="M542 675q52 0 88.5 -36.5t36.5 -88.5v-500q0 -52 -36.5 -88.5t-88.5 -36.5h-417q-52 0 -88.5 36.5t-36.5 88.5v500q0 52 36.5 88.5t88.5 36.5h417zM208 592v-42q0 -17 12.5 -29.5t29.5 -12.5h167q17 0 29 12.5t12 29.5v42h-250zM583 50v500q0 17 -12 29.5t-29 12.5h-42
v-42q0 -34 -24 -58.5t-59 -24.5h-167q-34 0 -58.5 24.5t-24.5 58.5v42h-42q-17 0 -29.5 -12.5t-12.5 -29.5v-500q0 -17 12.5 -29.5t29.5 -12.5h417q17 0 29 12.5t12 29.5zM500 92h-333q-21 0 -21 20q0 9 6 15t15 6h333q9 0 15 -6t6 -15q0 -20 -21 -20zM500 217h-333
q-9 0 -15 6t-6 15q0 20 21 20h333q21 0 21 -20q0 -9 -6 -15t-15 -6zM500 342h-333q-21 0 -21 20q0 9 6 15t15 6h333q9 0 15 -6t6 -15q0 -20 -21 -20z" />
    <glyph glyph-name="glyph75" unicode="&#xe04b;" horiz-adv-x="833" 
d="M625 425q86 0 147 -61t61 -147t-61 -147.5t-147 -61.5h-167v191l54 -53q13 -13 30 -13q16 0 29 13q12 12 12 29t-12 29l-125 125q-11 11 -29 11.5t-30 -11.5l-125 -125q-12 -12 -12 -29t12 -29q13 -13 30 -13q16 0 29 13l54 53v-191h-208q-69 0 -118 49t-49 118
q0 58 35 102.5t90 58.5v6q0 104 73.5 177t176.5 73q80 0 144.5 -46.5t90.5 -121.5z" />
    <glyph glyph-name="glyph76" unicode="&#xe054;" horiz-adv-x="844" 
d="M635 425q86 0 147.5 -61t61.5 -147t-61.5 -147.5t-147.5 -61.5h-458q-70 0 -123.5 49.5t-53.5 117.5q0 53 38 98t77 63v6q0 103 78 176.5t182 73.5q82 0 151.5 -47t94.5 -121zM635 92q52 0 88.5 36.5t36.5 88.5t-36 88.5t-88 36.5q-14 0 -34 -6l-45 -12l-8 45
q-11 60 -57 99.5t-107 39.5q-69 0 -117.5 -48.5t-48.5 -117.5q0 -18 3 -34l10 -50l-59 1q-32 0 -55.5 -25t-23.5 -59q0 -35 24 -59t59 -24h229v158l-89 -90q-6 -6 -15 -6q-13 0 -19 13t4 23l125 125q15 9 30 0l125 -125q10 -10 4 -23t-19 -13q-9 0 -15 6l-89 90v-158h187z
" />
    <glyph glyph-name="glyph77" unicode="&#xe04c;" horiz-adv-x="951" 
d="M302 8q-52 0 -89 37l-213 213l213 214q35 35 88.5 35t88.5 -35q37 -37 37 -88.5t-37 -88.5l-36 -37l36 -36q37 -37 37 -88.5t-37 -88.5t-88 -37zM118 258l154 -154q12 -12 29.5 -12t29.5 12t12 29.5t-12 29.5l-95 95l95 96q12 12 12 29.5t-12 29.5t-29.5 12t-29.5 -12z
M649 8q-51 0 -88 37t-37 88.5t37 88.5l37 36l-37 37q-37 37 -37 88.5t37 88.5q35 35 88.5 35t88.5 -35l213 -214l-213 -213q-37 -37 -89 -37zM649 425q-17 0 -29 -12t-12 -29.5t12 -29.5l95 -96l-95 -95q-12 -12 -12 -29.5t12 -29.5t29.5 -12t29.5 12l154 154l-154 155
q-12 12 -30 12z" />
    <glyph glyph-name="glyph78" unicode="&#xe04d;" horiz-adv-x="805" 
d="M243 50q-35 0 -59 24l-184 184l184 184q25 25 59.5 25t58.5 -25q25 -25 25 -59t-25 -59l-66 -66l66 -66q25 -25 25 -59t-25 -59q-24 -24 -59 -24zM562 50q-35 0 -59 24q-25 25 -25 59t25 59l66 66l-66 66q-25 25 -25 59t25 59q24 25 58.5 25t59.5 -25l184 -184l-184 -184
q-24 -24 -59 -24z" />
    <glyph glyph-name="glyph79" unicode="&#xe04e;" horiz-adv-x="708" 
d="M542 8h-500q-17 0 -29.5 12.5t-12.5 29.5t12.5 29.5t29.5 12.5h500q17 0 29 -12.5t12 -29.5t-12 -29.5t-29 -12.5zM562 592q60 0 103 -43t43 -103t-43 -103t-103 -43h-20v-83q0 -35 -25 -59.5t-59 -24.5h-333q-34 0 -58.5 24.5t-24.5 59.5v375h520zM458 217v291h-333
v-291h333zM562 383q26 0 44.5 18.5t18.5 44.5q0 25 -18.5 43.5t-44.5 18.5h-62v-125h62z" />
    <glyph glyph-name="glyph80" unicode="&#xe04f;" horiz-adv-x="770" 
d="M448 592h-125l-36 -143l-141 41l-63 -109l106 -102l-106 -102l63 -108l141 40l36 -142h125l35 142l142 -40l62 108l-106 102l106 102l-62 109l-142 -41zM448 675q28 0 50.5 -17.5t29.5 -45.5l15 -59l59 17q12 3 23 3q48 0 72 -42l62 -108q14 -25 10.5 -53t-24.5 -48
l-44 -43l44 -42q20 -20 24 -48t-10 -53l-62 -109q-24 -41 -72 -41q-11 0 -23 3l-59 16l-14 -59q-7 -28 -29.5 -45.5t-51.5 -17.5h-125q-29 0 -51.5 17.5t-29.5 45.5l-15 59l-58 -17q-12 -3 -23 -3q-48 0 -72 42l-63 108q-14 25 -10.5 53.5t24.5 48.5l44 42l-44 42
q-20 20 -24 48.5t10 53.5l63 108q24 42 72 42q11 0 23 -3l58 -17l15 59q7 28 29.5 45.5t51.5 17.5h125zM385 362q-35 0 -59 -24t-24 -59t24 -59t59 -24t59.5 24.5t24.5 58.5t-24.5 58.5t-59.5 24.5zM385 404q52 0 88.5 -36.5t36.5 -88.5t-36.5 -88.5t-88.5 -36.5t-88.5 36.5
t-36.5 88.5t36.5 88.5t88.5 36.5z" />
    <glyph glyph-name="glyph81" unicode="&#xe050;" horiz-adv-x="575" 
d="M200 69q-4 16 -19 25t-32 4l-61 -18q-17 -5 -35 2.5t-26 22.5l-21 36q-8 15 -5 34t15 31l45 44q12 12 12 29t-12 29l-45 44q-13 12 -15 31t6 34l20 37q8 15 26 22t35 2l61 -17q17 -5 32 4t19 25l15 61q5 17 20 29t32 12h41q17 0 32 -12t20 -29l16 -61q5 -17 19.5 -25
t30.5 -4l61 17q17 5 35 -2t26 -22l21 -37q8 -15 5 -34t-15 -31l-45 -44q-13 -12 -12.5 -29t12.5 -29l45 -44q12 -12 15 -31t-5 -34l-21 -36q-8 -15 -26 -22.5t-35 -2.5l-61 18q-16 4 -30.5 -4t-19.5 -25l-16 -62q-5 -17 -20 -28.5t-32 -11.5h-41q-17 0 -32 11.5t-20 28.5z
M288 362q-35 0 -59.5 -24.5t-24.5 -58.5t24.5 -58.5t59.5 -24.5q34 0 58.5 24t24.5 59t-24.5 59t-58.5 24z" />
    <glyph glyph-name="glyph82" unicode="&#xe051;" 
d="M375 592q-121 0 -206.5 -85.5t-85.5 -206.5t85.5 -206.5t206.5 -85.5t206.5 85.5t85.5 206.5t-85.5 206.5t-206.5 85.5zM375 675q155 0 265 -110t110 -265t-110 -265t-265 -110t-265 110t-110 265t110 265t265 110zM529 480q11 3 20 -6t6 -20l-72 -248q-3 -11 -14 -14
l-248 -72h-5q-10 0 -17 8t-4 18l72 248q3 11 14 14zM246 171l201 57l-144 144z" />
    <glyph glyph-name="glyph83" unicode="&#xe052;" horiz-adv-x="792" 
d="M667 675q52 0 88.5 -36.5t36.5 -88.5v-500q0 -52 -36.5 -88.5t-88.5 -36.5h-459q-52 0 -88.5 36.5t-36.5 88.5v42h-41q-17 0 -29.5 12t-12.5 29t12.5 29.5t29.5 12.5h41v83h-41q-17 0 -29.5 12.5t-12.5 29.5t12.5 29.5t29.5 12.5h41v83h-41q-17 0 -29.5 12.5t-12.5 29.5
t12.5 29t29.5 12h41v42q0 52 36.5 88.5t88.5 36.5h459zM167 550v-42h41v84q-17 0 -29 -12.5t-12 -29.5zM167 425v-83h41v83h-41zM167 258v-83h41v83h-41zM167 50q0 -17 12 -29.5t29 -12.5v84h-41v-42zM708 50v500q0 17 -12 29.5t-29 12.5h-417v-584h417q17 0 29 12.5
t12 29.5zM375 362q0 84 83 84q84 0 84 -84q0 -83 -84 -83q-83 0 -83 83zM458 244q45 0 74.5 -18t29.5 -42q0 -12 -30 -21t-74 -9q-47 0 -75.5 9t-28.5 21q0 24 28.5 42t75.5 18z" />
    <glyph glyph-name="glyph84" unicode="&#xe053;" horiz-adv-x="708" 
d="M583 508q52 0 88.5 -36.5t36.5 -88.5v-291q0 -52 -36.5 -88.5t-88.5 -36.5h-458q-52 0 -88.5 36.5t-36.5 88.5v291q0 52 36.5 88.5t88.5 36.5h458zM625 92v166h-542v-166q0 -17 12.5 -29.5t29.5 -12.5h458q17 0 29.5 12.5t12.5 29.5zM625 342v41q0 17 -12.5 29.5
t-29.5 12.5h-458q-17 0 -29.5 -12.5t-12.5 -29.5v-41h542zM458 133q-20 0 -20 21t20 21h84q20 0 20 -21t-20 -21h-84z" />
    <glyph glyph-name="glyph85" unicode="&#xe055;" 
d="M112 658h638l-58 -304q-1 -8 -54 -292l-342 -120l-296 120l29 159h125l-12 -67l179 -71l208 71l29 150h-512l25 134h512l17 87h-512z" />
    <glyph glyph-name="glyph86" unicode="&#xe056;" horiz-adv-x="583" 
d="M583 434v-4v-260q0 -121 -85 -206.5t-206 -85.5t-206.5 85.5t-85.5 206.5v260l1 4q5 116 89.5 196.5t201.5 80.5t201.5 -80.5t89.5 -196.5zM292 66q68 0 124.5 37t83.5 97v16q-86 -88 -208 -88q-123 0 -209 88v-16q27 -60 84 -97t125 -37zM292 628q-86 0 -147.5 -61
t-61.5 -147t61.5 -147.5t147.5 -61.5t147 61.5t61 147.5t-61 147t-147 61zM292 -39q70 0 125 42.5t74 108.5q-81 -88 -199 -88t-199 88q19 -66 74 -108.5t125 -42.5z" />
    <glyph glyph-name="glyph87" unicode="&#xe057;" 
d="M375 675q155 0 265 -110t110 -265t-110 -265t-265 -110t-265 110t-110 265t110 265t265 110zM375 8q121 0 206.5 85.5t85.5 206.5t-85.5 206.5t-206.5 85.5t-206.5 -85.5t-85.5 -206.5t85.5 -206.5t206.5 -85.5zM404 300l111 -110q10 -10 4 -23t-19 -13q-9 0 -15 6
l-110 111l-110 -111q-6 -6 -15 -6q-13 0 -19 13t4 23l111 110l-111 110q-14 14 1 29t29 1l110 -111l110 111q14 14 29 -1t1 -29z" />
    <glyph glyph-name="glyph88" unicode="&#xe058;" horiz-adv-x="667" 
d="M333 633q138 0 236 -97.5t98 -235.5t-98 -235.5t-236 -97.5t-235.5 97.5t-97.5 235.5t97.5 235.5t235.5 97.5zM488 204l-96 96l96 96q12 12 12 29t-12 29t-29.5 12t-29.5 -12l-96 -95l-95 95q-12 12 -29.5 12t-29.5 -12t-12 -29t12 -29l95 -96l-95 -96q-12 -12 -12 -29
t12 -29q13 -13 29 -13q17 0 30 13l95 95l96 -95q13 -13 29 -13q17 0 30 13q12 12 12 29t-12 29z" />
    <glyph glyph-name="glyph89" unicode="&#xe059;" horiz-adv-x="1000" 
d="M875 758q52 0 88.5 -36.5t36.5 -88.5v-458q0 -52 -36.5 -88.5t-88.5 -36.5h-250v-83h125q17 0 29.5 -12.5t12.5 -29.5t-12.5 -29.5t-29.5 -12.5h-500q-17 0 -29.5 12.5t-12.5 29.5t12.5 29.5t29.5 12.5h125v83h-250q-52 0 -88.5 36.5t-36.5 88.5v458q0 52 36.5 88.5
t88.5 36.5h750zM583 -33v83h-166v-83h166zM917 175v458q0 17 -12.5 29.5t-29.5 12.5h-750q-17 0 -29.5 -12.5t-12.5 -29.5v-458q0 -17 12.5 -29.5t29.5 -12.5h750q17 0 29.5 12.5t12.5 29.5zM833 633q17 0 29.5 -12t12.5 -29v-334q0 -17 -12.5 -29t-29.5 -12h-666
q-17 0 -29.5 12t-12.5 29v334q0 17 12.5 29t29.5 12h666zM833 258v334h-666v-334h666z" />
    <glyph glyph-name="glyph90" unicode="&#xe05a;" horiz-adv-x="1000" 
d="M916 131q36 -8 60 -36.5t24 -65.5q0 -43 -30.5 -73.5t-73.5 -30.5h-792q-43 0 -73.5 30.5t-30.5 73.5q0 37 24 65.5t60 36.5q0 6 -0.5 21t-0.5 23v375q0 52 36.5 88.5t88.5 36.5h584q52 0 88.5 -36.5t36.5 -88.5v-375q0 -8 -0.5 -23t-0.5 -21zM167 550v-375q0 -9 0.5 -23
t0.5 -19h40v375q0 17 12.5 29.5t29.5 12.5h500q17 0 29.5 -12.5t12.5 -29.5v-375h41v42v375q0 17 -12 29.5t-29 12.5h-584q-17 0 -29 -12.5t-12 -29.5zM750 133v375h-500v-375h500zM896 8q8 0 14.5 6.5t6.5 14.5t-6.5 14.5t-14.5 6.5h-792q-8 0 -14.5 -6.5t-6.5 -14.5
t6.5 -14.5t14.5 -6.5h792z" />
    <glyph glyph-name="glyph91" unicode="&#xe05b;" horiz-adv-x="542" 
d="M417 675q52 0 88.5 -36.5t36.5 -88.5v-500q0 -52 -36.5 -88.5t-88.5 -36.5h-292q-52 0 -88.5 36.5t-36.5 88.5v500q0 52 36.5 88.5t88.5 36.5h292zM458 50v500q0 17 -12 29.5t-29 12.5h-292q-17 0 -29.5 -12.5t-12.5 -29.5v-500q0 -17 12.5 -29.5t29.5 -12.5h292
q17 0 29 12.5t12 29.5zM375 550q17 0 29.5 -12.5t12.5 -29.5v-375q0 -17 -12.5 -29t-29.5 -12h-63q0 -17 -12 -29.5t-29 -12.5t-29.5 12.5t-12.5 29.5h-62q-17 0 -29.5 12t-12.5 29v375q0 17 12.5 29.5t29.5 12.5h208zM375 133v375h-208v-375h208z" />
    <glyph glyph-name="glyph92" unicode="&#xe05c;" horiz-adv-x="708" 
d="M542 633q17 0 29 -12t12 -29v-500q0 -17 -12 -29.5t-29 -12.5h-146q0 -17 -12.5 -29.5t-29.5 -12.5t-29.5 12.5t-12.5 29.5h-145q-17 0 -29.5 12.5t-12.5 29.5v500q0 17 12.5 29t29.5 12h375zM542 92v500h-375v-500h375zM583 758q52 0 88.5 -36.5t36.5 -88.5v-625
q0 -52 -36.5 -88.5t-88.5 -36.5h-458q-52 0 -88.5 36.5t-36.5 88.5v625q0 52 36.5 88.5t88.5 36.5h458zM625 8v625q0 17 -12.5 29.5t-29.5 12.5h-458q-17 0 -29.5 -12.5t-12.5 -29.5v-625q0 -17 12.5 -29t29.5 -12h458q17 0 29.5 12t12.5 29z" />
    <glyph glyph-name="glyph93" unicode="&#xe05d;" horiz-adv-x="746" 
d="M746 404l-114 -108l-3 -3q38 -43 38 -97q0 -60 -43 -103t-103 -43h-113l-33 -167h-42l-33 167h-92q-55 0 -94 39l-107 107l77 77q-38 17 -61 52.5t-23 78.5q0 60 43 103t103 43h146v21q0 25 18 43.5t44 18.5t44.5 -18.5t18.5 -43.5v-21h121q54 0 93 -37zM521 133
q25 0 43.5 18.5t18.5 44.5t-18.5 44t-43.5 18h-313q-21 0 -35 -14l-48 -48l48 -48q15 -15 35 -15h313zM574 356l51 48l-51 48q-15 15 -36 15h-392q-26 0 -44.5 -18.5t-18.5 -44.5q0 -25 18.5 -43.5t44.5 -18.5h392q22 0 36 14z" />
    <glyph glyph-name="glyph94" unicode="&#xe05e;" 
d="M375 446q-52 0 -88.5 36.5t-36.5 88.5t36.5 88.5t88.5 36.5t88.5 -36.5t36.5 -88.5t-36.5 -88.5t-88.5 -36.5zM375 612q-17 0 -29.5 -12t-12.5 -29t12.5 -29.5t29.5 -12.5t29.5 12.5t12.5 29.5t-12.5 29t-29.5 12zM375 -96q-52 0 -88.5 36.5t-36.5 88.5t36.5 88.5
t88.5 36.5t88.5 -36.5t36.5 -88.5t-36.5 -88.5t-88.5 -36.5zM375 71q-17 0 -29.5 -12.5t-12.5 -29.5t12.5 -29t29.5 -12t29.5 12t12.5 29t-12.5 29.5t-29.5 12.5zM625 175h-500q-52 0 -88.5 36.5t-36.5 88.5t36.5 88.5t88.5 36.5h500q52 0 88.5 -36.5t36.5 -88.5
t-36.5 -88.5t-88.5 -36.5zM125 342q-17 0 -29.5 -12.5t-12.5 -29.5t12.5 -29.5t29.5 -12.5h500q17 0 29.5 12.5t12.5 29.5t-12.5 29.5t-29.5 12.5h-500z" />
    <glyph glyph-name="glyph95" unicode="&#xe05f;" horiz-adv-x="667" 
d="M240 550q0 94 93 94q94 0 94 -94t-94 -94q-93 0 -93 94zM240 50q0 94 93 94q94 0 94 -94t-94 -94q-93 0 -93 94zM0 300q0 34 24 58.5t59 24.5h500q35 0 59.5 -24.5t24.5 -58.5t-24.5 -58.5t-59.5 -24.5h-500q-35 0 -59 24.5t-24 58.5z" />
    <glyph glyph-name="glyph96" unicode="&#xe060;" horiz-adv-x="667" 
d="M458 300q17 0 29.5 -12.5t12.5 -29.5t-12.5 -29t-29.5 -12h-83v-84q0 -17 -12.5 -29t-29.5 -12t-29 12t-12 29v84h-84q-17 0 -29 12t-12 29t12 29.5t29 12.5h84v83q0 17 12 29.5t29 12.5t29.5 -12.5t12.5 -29.5v-83h83zM654 496q13 -13 13 -29v-417q0 -52 -36.5 -88.5
t-88.5 -36.5h-417q-52 0 -88.5 36.5t-36.5 88.5v500q0 52 36.5 88.5t88.5 36.5h333q18 0 30 -12zM566 467l-108 107v-45q0 -25 18.5 -43.5t44.5 -18.5h45zM542 8q17 0 29 12.5t12 29.5v375h-62q-43 0 -73.5 30.5t-30.5 73.5v63h-292q-17 0 -29.5 -12.5t-12.5 -29.5v-500
q0 -17 12.5 -29.5t29.5 -12.5h417z" />
    <glyph glyph-name="glyph97" unicode="&#xe061;" horiz-adv-x="667" 
d="M654 496q13 -13 13 -29v-417q0 -52 -36.5 -88.5t-88.5 -36.5h-417q-52 0 -88.5 36.5t-36.5 88.5v500q0 52 36.5 88.5t88.5 36.5h333q18 0 30 -12zM566 467l-108 107v-45q0 -25 18.5 -43.5t44.5 -18.5h45zM542 8q17 0 29 12.5t12 29.5v375h-62q-43 0 -73.5 30.5
t-30.5 73.5v63h-292q-17 0 -29.5 -12.5t-12.5 -29.5v-500q0 -17 12.5 -29.5t29.5 -12.5h417zM458 217h-250q-17 0 -29 12t-12 29t12 29.5t29 12.5h250q17 0 29.5 -12.5t12.5 -29.5t-12.5 -29t-29.5 -12z" />
    <glyph glyph-name="glyph98" unicode="&#xe062;" horiz-adv-x="667" 
d="M542 -75h-417q-52 0 -88.5 36.5t-36.5 88.5v500q0 52 36.5 88.5t88.5 36.5h417q52 0 88.5 -36.5t36.5 -88.5v-500q0 -52 -36.5 -88.5t-88.5 -36.5zM125 592q-17 0 -29.5 -12.5t-12.5 -29.5v-500q0 -17 12.5 -29.5t29.5 -12.5h417q17 0 29 12.5t12 29.5v500q0 17 -12 29.5
t-29 12.5h-417zM500 342h-333q-21 0 -21 20q0 9 6 15t15 6h333q9 0 15 -6t6 -15q0 -20 -21 -20zM500 467h-333q-9 0 -15 6t-6 15q0 20 21 20h333q21 0 21 -20q0 -9 -6 -15t-15 -6zM500 217h-333q-9 0 -15 6t-6 15q0 20 21 20h333q21 0 21 -20q0 -9 -6 -15t-15 -6zM500 92
h-333q-21 0 -21 20q0 9 6 15t15 6h333q9 0 15 -6t6 -15q0 -20 -21 -20z" />
    <glyph glyph-name="glyph99" unicode="&#xe063;" horiz-adv-x="667" 
d="M654 496q13 -13 13 -29v-417q0 -52 -36.5 -88.5t-88.5 -36.5h-417q-52 0 -88.5 36.5t-36.5 88.5v500q0 52 36.5 88.5t88.5 36.5h333q18 0 30 -12zM566 467l-108 107v-45q0 -25 18.5 -43.5t44.5 -18.5h45zM542 8q17 0 29 12.5t12 29.5v375h-62q-43 0 -73.5 30.5
t-30.5 73.5v63h-292q-17 0 -29.5 -12.5t-12.5 -29.5v-500q0 -17 12.5 -29.5t29.5 -12.5h417z" />
    <glyph glyph-name="glyph100" unicode="&#xe064;" 
d="M749 92l1 -209q0 -17 -12.5 -29t-29.5 -12h-666q-17 0 -29.5 12t-12.5 29q0 209 1 209q0 9 1 13l84 250q10 28 39 28h23l-28 29q-37 37 -37 88t37 88q25 25 61 33t69 -3v57q0 52 36.5 88.5t88.5 36.5t88.5 -36.5t36.5 -88.5v-57q33 11 69 3t61 -33q37 -37 37 -88t-37 -88
l-28 -29h23q29 0 39 -28l84 -250q1 -4 1 -13zM179 529q-12 -12 -12 -29.5t12 -29.5l196 -195l196 196q12 12 12 29t-12 29t-29.5 12t-29.5 -12l-95 -95v241q0 17 -12.5 29.5t-29.5 12.5t-29.5 -12.5t-12.5 -29.5v-241l-95 95q-13 13 -30 13q-16 0 -29 -13zM155 300l-69 -208
h579l-70 208h-77l-143 -142l-143 142h-77zM667 -75v125h-584v-125h584z" />
    <glyph glyph-name="glyph101" unicode="&#xe065;" 
d="M571 492q12 -12 12 -29.5t-12 -29.5l-196 -195l-196 195q-12 12 -12 29.5t12 29.5t29 12q18 0 30 -12l95 -96v279q0 17 12.5 29.5t29.5 12.5t29.5 -12.5t12.5 -29.5v-279l95 96q11 11 30 11q18 0 29 -11zM749 133l1 -208q0 -17 -12.5 -29.5t-29.5 -12.5h-666
q-17 0 -29.5 12.5t-12.5 29.5q0 208 1 208q0 9 1 13l84 250q10 29 39 29h9q7 -14 15 -22l62 -61h-56l-69 -209h578l-69 209h-56l62 61q8 8 15 22h9q29 0 39 -29l84 -250q1 -4 1 -13z" />
    <glyph glyph-name="glyph102" unicode="&#xe066;" 
d="M0 262l154 121l221 -137l-154 -129zM221 650l154 -129l-221 -138l-154 121zM750 504l-154 -121l-221 138l154 129zM375 246l221 137l154 -121l-221 -145zM375 196l154 -129l67 45v-50l-221 -133l-221 133v50l67 -45z" />
    <glyph glyph-name="glyph103" unicode="&#xe067;" horiz-adv-x="792" 
d="M773 578q19 -19 19 -44t-19 -44l-148 -148v-375q0 -17 -12.5 -29.5t-29.5 -12.5h-541q-17 0 -29.5 12.5t-12.5 29.5v541q0 17 12.5 29.5t29.5 12.5h375l148 148q19 19 44 19t44 -19zM354 189l262 262l-90 90l-262 -262zM247 244l3 -69l71 -3zM542 8v250l-133 -128
q-16 -16 -50.5 -27t-64.5 -11h-127v127q0 33 9 66t25 49l132 133h-250v-459h459zM646 480l54 54l-91 91l-54 -54z" />
    <glyph glyph-name="glyph104" unicode="&#xe068;" horiz-adv-x="706" 
d="M500 444q91 -27 148.5 -101.5t57.5 -172.5q0 -120 -86.5 -203.5t-208.5 -83.5q-98 0 -176.5 59t-106.5 150h-45q-35 0 -59 24t-24 59v417h417q34 0 58.5 -24.5t24.5 -59.5v-64zM167 366l200 -200q12 -12 29 -12q18 0 30 12t12 29.5t-12 29.5l-200 200h135q17 0 29 12.5
t12 29.5t-12 29t-29 12h-278v-277q0 -17 12.5 -29.5t29.5 -12.5t29.5 12.5t12.5 29.5v135zM417 -35q86 0 147 60.5t61 146.5t-61 146t-147 60q-30 0 -69 -16l107 -107q25 -25 25 -59.5t-25 -58.5q-25 -25 -59 -25t-59 25l-120 120q-9 -25 -9 -83q0 -86 61.5 -147.5
t147.5 -61.5z" />
    <glyph glyph-name="glyph105" unicode="&#xe069;" horiz-adv-x="646" 
d="M375 71q77 0 132 55t55 132t-55 132.5t-132 55.5q-17 0 -29.5 12.5t-12.5 29.5t12.5 29t29.5 12q112 0 191.5 -79.5t79.5 -191.5t-79.5 -191t-191.5 -79t-191.5 79t-79.5 191q0 17 12.5 29.5t29.5 12.5t29.5 -12.5t12.5 -29.5q0 -77 55 -132t132 -55zM277 633
q17 0 29.5 -12t12.5 -29t-12.5 -29.5t-29.5 -12.5h-135l242 -242q12 -12 12 -29.5t-12 -29.5t-30 -12q-17 0 -29 12l-242 242v-135q0 -17 -12 -29.5t-29 -12.5t-29.5 12.5t-12.5 29.5v277h277v0z" />
    <glyph glyph-name="glyph106" unicode="&#xe06a;" 
d="M625 300h-500q-52 0 -88.5 36.5t-36.5 88.5t36.5 88.5t88.5 36.5h500q52 0 88.5 -36.5t36.5 -88.5t-36.5 -88.5t-88.5 -36.5zM125 467q-17 0 -29.5 -12.5t-12.5 -29.5t12.5 -29.5t29.5 -12.5h500q17 0 29.5 12.5t12.5 29.5t-12.5 29.5t-29.5 12.5h-500zM625 8h-500
q-52 0 -88.5 36.5t-36.5 88.5t36.5 88.5t88.5 36.5h500q52 0 88.5 -36.5t36.5 -88.5t-36.5 -88.5t-88.5 -36.5zM125 175q-17 0 -29.5 -12.5t-12.5 -29.5t12.5 -29t29.5 -12h500q17 0 29.5 12t12.5 29t-12.5 29.5t-29.5 12.5h-500z" />
    <glyph glyph-name="glyph107" unicode="&#xe06b;" horiz-adv-x="667" 
d="M583 508q35 0 59.5 -24.5t24.5 -58.5t-24.5 -58.5t-59.5 -24.5h-500q-35 0 -59 24t-24 59t24 59t59 24h500zM583 217q35 0 59.5 -24.5t24.5 -59.5q0 -34 -24.5 -58.5t-59.5 -24.5h-500q-35 0 -59 24t-24 59t24.5 59.5t58.5 24.5h500z" />
    <glyph glyph-name="glyph108" unicode="&#xe06c;" horiz-adv-x="792" 
d="M780 392q12 -12 12 -29.5t-12 -29.5q-53 -53 -113 -114v-252q0 -17 -12.5 -29.5t-29.5 -12.5h-583q-17 0 -29.5 12.5t-12.5 29.5v583q0 17 12.5 29.5t29.5 12.5h333q0 34 26 58.5t63 24.5t66 -27q96 -102 250 -256zM470 136q205 210 221 226q-141 143 -220 228l-7 2
l-6 -2v-165h-41q-38 0 -69 -13t-52 -33t-37 -48.5t-25 -55.5t-15 -57q90 81 198 82h41v-165l6 -2zM83 8h500v185q-49 -49 -82 -85q-14 -16 -37 -16q-20 0 -33.5 12t-13.5 29v125q-143 -3 -250 -166v20q0 48 7 95t25.5 95t45.5 84t71.5 58.5t100.5 22.5v41h-334v-500z" />
    <glyph glyph-name="glyph109" unicode="&#xe06d;" 
d="M167 112q0 48 7 95t25.5 95t45.5 84t71.5 58.5t100.5 22.5v125q0 17 13.5 29t33.5 12q22 0 37 -15l249 -256q-168 -169 -249 -254q-14 -16 -37 -16q-20 0 -33.5 12t-13.5 29v125q-143 -3 -250 -166v20zM42 -75q-17 0 -29.5 12.5t-12.5 29.5v583q0 17 12.5 29.5t29.5 12.5
h333v-84h-292v-500h500v125q52 54 84 86v-252q0 -17 -12.5 -29.5t-29.5 -12.5h-583z" />
    <glyph glyph-name="glyph110" unicode="&#xe06e;" 
d="M375 425q-78 0 -137 -42q-62 -44 -132 -125q68 -79 132 -124q59 -42 137 -42t137 42q64 45 132 124q-70 81 -132 125q-59 42 -137 42zM375 508q106 0 185 -57q48 -34 95.5 -82.5t70.5 -79.5l24 -31q-9 -13 -25.5 -34.5t-66.5 -73t-98 -85.5q-79 -57 -185 -57
q-107 0 -186 57q-48 34 -95.5 82.5t-70.5 79.5l-23 31q9 13 25.5 34.5t66 73t97.5 85.5q79 57 186 57zM375 300q17 0 29.5 -12.5t12.5 -29.5t-12.5 -29t-29.5 -12t-29.5 12t-12.5 29t12.5 29.5t29.5 12.5zM375 133q-52 0 -88.5 36.5t-36.5 88.5t36.5 88.5t88.5 36.5
t88.5 -36.5t36.5 -88.5t-36.5 -88.5t-88.5 -36.5zM375 342q-34 0 -58.5 -24.5t-24.5 -59.5q0 -34 24 -58.5t59 -24.5t59 24.5t24 58.5q0 35 -24.5 59.5t-58.5 24.5z" />
    <glyph glyph-name="glyph111" unicode="&#xe06f;" horiz-adv-x="833" 
d="M826 282q17 -23 0 -47q-6 -9 -27.5 -37t-71.5 -79.5t-101 -87.5q-90 -64 -209 -64q-120 0 -210 64q-51 36 -101 87.5t-71.5 79.5t-27.5 37q-17 23 0 47q5 9 27 37t72 79t101 87q91 65 210 65q118 0 209 -65q51 -36 101 -87t72 -79t27 -37zM417 112q60 0 102.5 43
t42.5 103q0 61 -42.5 103.5t-102.5 42.5q-61 0 -103.5 -42.5t-42.5 -103.5q0 -60 42.5 -103t103.5 -43zM500 258q0 -34 -24 -58.5t-59 -24.5t-59.5 24.5t-24.5 58.5t24.5 59t59.5 25q34 0 58.5 -24.5t24.5 -59.5z" />
    <glyph glyph-name="glyph112" unicode="&#xe070;" horiz-adv-x="708" 
d="M362 758q151 -28 248.5 -145.5t97.5 -270.5q0 -144 -87 -257.5t-225 -150.5v-51q0 -17 -12.5 -29t-29.5 -12t-29.5 12t-12.5 29v51q-138 37 -225 150.5t-87 257.5q0 153 98 270.5t249 145.5l7 1zM396 21q100 35 163 120t66 192l-131 -131q-6 -6 -15 -6q-13 0 -19 12t4 23
l157 157q-9 61 -36 113l-91 -91q-6 -6 -15 -6q-13 0 -19 13t4 23l98 98q-77 109 -208 136q-131 -27 -208 -136l98 -98q10 -10 4 -23t-19 -13q-9 0 -15 6l-91 91q-27 -52 -36 -113l157 -157q10 -11 4 -23t-19 -12q-9 0 -15 6l-130 131q3 -107 65.5 -192t162.5 -120v487
q0 17 12.5 29.5t29.5 12.5t29.5 -12.5t12.5 -29.5v-487z" />
    <glyph glyph-name="glyph113" unicode="&#xe071;" horiz-adv-x="667" 
d="M167 467h333v-292h-333v292zM458 217v208h-250v-208h250zM542 717q52 0 88.5 -36.5t36.5 -88.5v-542q0 -52 -36.5 -88.5t-88.5 -36.5h-125v83h-167v-83h-125q-52 0 -88.5 36.5t-36.5 88.5v542q0 52 36.5 88.5t88.5 36.5h125v-84h167v84h125zM583 550v42q0 17 -12 29
t-29 12h-42v-83h-333v83h-42q-17 0 -29.5 -12t-12.5 -29v-42q17 0 29.5 -12.5t12.5 -29.5t-12.5 -29t-29.5 -12v-42q17 0 29.5 -12.5t12.5 -29.5t-12.5 -29t-29.5 -12v-42q17 0 29.5 -12.5t12.5 -29.5t-12.5 -29t-29.5 -12v-42q17 0 29.5 -12.5t12.5 -29.5t-12.5 -29
t-29.5 -12v-42q0 -17 12.5 -29.5t29.5 -12.5h42v84h333v-84h42q17 0 29 12.5t12 29.5v42q-17 0 -29 12t-12 29t12 29.5t29 12.5v42q-17 0 -29 12t-12 29t12 29.5t29 12.5v42q-17 0 -29 12t-12 29t12 29.5t29 12.5v42q-17 0 -29 12t-12 29t12 29.5t29 12.5z" />
    <glyph glyph-name="glyph114" unicode="&#xe072;" horiz-adv-x="671" 
d="M627 550q35 0 42.5 -16.5t-17.5 -41.5l-175 -175q-24 -24 -41 -60t-17 -61v-146l-167 -83v208q0 35 -16.5 76t-41.5 66l-175 175q-25 25 -17.5 41.5t42.5 16.5h583z" />
    <glyph glyph-name="glyph115" unicode="&#xe073;" horiz-adv-x="583" 
d="M512 611q20 20 45.5 8.5t25.5 -37.5v-334q0 -17 -12 -29q-64 -64 -154.5 -64t-154.5 64q-37 37 -88 40t-91 -29v-190q0 -17 -12 -29.5t-29 -12.5t-29.5 12.5t-12.5 29.5v542q0 17 12 29q64 64 154.5 64t154.5 -64q40 -40 95.5 -40t95.5 40zM262 552q-37 37 -88 40
t-91 -29v-95q54 26 116.5 16t106.5 -54q39 -39 94 -45t100 23v97q-58 -25 -124.5 -12.5t-113.5 59.5zM321 278q37 -37 88 -40t91 29v95q-43 -20 -83 -20q-80 0 -140 58q-39 39 -94 44.5t-100 -23.5v-96q42 17 84 17q90 0 154 -64z" />
    <glyph glyph-name="glyph116" unicode="&#xe074;" horiz-adv-x="583" 
d="M512 611q20 20 45.5 8.5t25.5 -37.5v-334q0 -17 -12 -29q-64 -64 -154.5 -64t-154.5 64q-37 37 -88 40t-91 -29v-190q0 -17 -12 -29.5t-29 -12.5t-29.5 12.5t-12.5 29.5v542q0 17 12 29q64 64 154.5 64t154.5 -64q40 -40 95.5 -40t95.5 40z" />
    <glyph glyph-name="glyph117" unicode="&#xe075;" horiz-adv-x="583" 
d="M396 633zM396 633l-313 -295l209 -121l-104 -250l312 296l-208 120zM396 717q34 0 58.5 -24.5t24.5 -59.5q0 -17 -8 -35l-74 -179l145 -84q35 -20 40.5 -61.5t-25.5 -71.5l-312 -296q-25 -23 -58 -23q-45 0 -69 38t-7 78l76 182l-145 84q-35 20 -41 61t25 72l312 296
q25 23 58 23z" />
    <glyph glyph-name="glyph118" unicode="&#xe076;" horiz-adv-x="500" 
d="M479 299q18 -10 20.5 -31t-12.5 -36l-313 -296q-11 -11 -28 -11q-22 0 -34.5 19t-4.5 39l90 216l-176 102q-17 10 -20 31t12 36l313 296q13 11 28 11q17 0 29.5 -12.5t12.5 -29.5q0 -10 -4 -18l-89 -214z" />
    <glyph glyph-name="glyph119" unicode="&#xe077;" horiz-adv-x="667" 
d="M542 133q52 0 88.5 -36.5t36.5 -88.5t-36.5 -88.5t-88.5 -36.5q-40 0 -72.5 23.5t-45.5 60.5h-132q-86 0 -147.5 61t-61.5 147v299q-36 13 -59.5 45.5t-23.5 72.5q0 52 36.5 88.5t88.5 36.5t88.5 -36.5t36.5 -88.5q0 -40 -23.5 -72.5t-59.5 -45.5v-7q0 -52 36.5 -88.5
t88.5 -36.5h132q13 36 45.5 59.5t72.5 23.5q52 0 88.5 -36.5t36.5 -88.5t-36.5 -88.5t-88.5 -36.5q-40 0 -72.5 23.5t-45.5 59.5h-132q-67 0 -125 43v-126q0 -52 36.5 -88.5t88.5 -36.5h132q13 36 45.5 59.5t72.5 23.5zM542 342q-17 0 -29.5 -12.5t-12.5 -29.5t12.5 -29.5
t29.5 -12.5t29 12.5t12 29.5t-12 29.5t-29 12.5zM125 633q-17 0 -29.5 -12t-12.5 -29t12.5 -29.5t29.5 -12.5t29.5 12.5t12.5 29.5t-12.5 29t-29.5 12zM542 -33q17 0 29 12t12 29t-12 29.5t-29 12.5t-29.5 -12.5t-12.5 -29.5t12.5 -29t29.5 -12z" />
    <glyph glyph-name="glyph120" unicode="&#xe078;" horiz-adv-x="667" 
d="M583 126q37 -13 60.5 -45.5t23.5 -72.5q0 -52 -36.5 -88.5t-88.5 -36.5t-88.5 36.5t-36.5 88.5q0 40 23.5 72.5t59.5 45.5v77q0 25 -18 43.5t-44 18.5q-63 0 -105 44q-42 -44 -104 -44q-25 0 -43.5 -18.5t-18.5 -43.5v-77q36 -13 59.5 -45.5t23.5 -72.5
q0 -52 -36.5 -88.5t-88.5 -36.5t-88.5 36.5t-36.5 88.5q0 40 23.5 72.5t59.5 45.5v77q0 60 43 103t103 43q26 0 44.5 18.5t18.5 43.5v63q-37 13 -60.5 45.5t-23.5 72.5q0 52 36.5 88.5t88.5 36.5t88.5 -36.5t36.5 -88.5q0 -40 -23.5 -72.5t-59.5 -45.5v-63q0 -25 18.5 -43.5
t44.5 -18.5q60 0 102.5 -43t42.5 -103v-77zM125 -33q17 0 29.5 12t12.5 29t-12.5 29.5t-29.5 12.5t-29.5 -12.5t-12.5 -29.5t12.5 -29t29.5 -12zM333 633q-17 0 -29 -12t-12 -29t12 -29.5t29 -12.5t29.5 12.5t12.5 29.5t-12.5 29t-29.5 12zM542 -33q17 0 29 12t12 29
t-12 29.5t-29 12.5t-29.5 -12.5t-12.5 -29.5t12.5 -29t29.5 -12z" />
    <glyph glyph-name="glyph121" unicode="&#xe079;" horiz-adv-x="667" 
d="M583 126q37 -13 60.5 -45.5t23.5 -72.5q0 -52 -36.5 -88.5t-88.5 -36.5t-88.5 36.5t-36.5 88.5q0 40 23.5 72.5t59.5 45.5v348q-36 13 -59.5 45.5t-23.5 72.5q0 52 36.5 88.5t88.5 36.5t88.5 -36.5t36.5 -88.5q0 -40 -23.5 -72.5t-60.5 -45.5v-348zM542 633
q-17 0 -29.5 -12t-12.5 -29t12.5 -29.5t29.5 -12.5t29 12.5t12 29.5t-12 29t-29 12zM542 -33q17 0 29 12t12 29t-12 29.5t-29 12.5t-29.5 -12.5t-12.5 -29.5t12.5 -29t29.5 -12zM250 592q0 -40 -23.5 -72.5t-59.5 -45.5v-348q36 -13 59.5 -45.5t23.5 -72.5
q0 -52 -36.5 -88.5t-88.5 -36.5t-88.5 36.5t-36.5 88.5q0 40 23.5 72.5t59.5 45.5v348q-36 13 -59.5 45.5t-23.5 72.5q0 52 36.5 88.5t88.5 36.5t88.5 -36.5t36.5 -88.5zM125 633q-17 0 -29.5 -12t-12.5 -29t12.5 -29.5t29.5 -12.5t29.5 12.5t12.5 29.5t-12.5 29t-29.5 12z
M125 -33q17 0 29.5 12t12.5 29t-12.5 29.5t-29.5 12.5t-29.5 -12.5t-12.5 -29.5t12.5 -29t29.5 -12z" />
    <glyph glyph-name="glyph122" unicode="&#xe07a;" horiz-adv-x="667" 
d="M167 126q36 -13 59.5 -45.5t23.5 -72.5q0 -52 -36.5 -88.5t-88.5 -36.5t-88.5 36.5t-36.5 88.5q0 40 23.5 72.5t59.5 45.5v28q0 78 61 133q39 -32 76 -48q-53 -31 -53 -85v-28zM125 -33q17 0 29.5 12t12.5 29t-12.5 29.5t-29.5 12.5t-29.5 -12.5t-12.5 -29.5t12.5 -29
t29.5 -12zM500 474q-36 13 -59.5 45.5t-23.5 72.5q0 52 36.5 88.5t88.5 36.5t88.5 -36.5t36.5 -88.5q0 -40 -23.5 -72.5t-60.5 -45.5v-14q0 -84 -63 -144q-35 29 -76 45q56 35 56 99v14zM542 633q-17 0 -29.5 -12t-12.5 -29t12.5 -29.5t29.5 -12.5t29 12.5t12 29.5t-12 29
t-29 12zM581 126q38 -12 62 -44.5t24 -73.5q0 -52 -36.5 -88.5t-88.5 -36.5t-88.5 36.5t-36.5 88.5q0 39 22 71t58 46q-11 57 -57.5 95t-106.5 38q-94 0 -164 62t-83 154q-38 12 -62 44.5t-24 73.5q0 52 36.5 88.5t88.5 36.5t88.5 -36.5t36.5 -88.5q0 -39 -22 -71t-58 -46
q11 -57 57 -95t106 -38q94 0 164.5 -62.5t83.5 -153.5zM125 633q-17 0 -29.5 -12t-12.5 -29t12.5 -29.5t29.5 -12.5t29.5 12.5t12.5 29.5t-12.5 29t-29.5 12zM542 -33q17 0 29 12t12 29t-12 29.5t-29 12.5t-29.5 -12.5t-12.5 -29.5t12.5 -29t29.5 -12z" />
    <glyph glyph-name="glyph123" unicode="&#xe07b;" 
d="M625 550q52 0 88.5 -36.5t36.5 -88.5v-333q0 -52 -36.5 -88.5t-88.5 -36.5h-500q-52 0 -88.5 36.5t-36.5 88.5v416q0 52 36.5 88.5t88.5 36.5h167q34 0 58.5 -24.5t24.5 -58.5h250zM625 50q17 0 29.5 12.5t12.5 29.5v291h-167q-8 0 -14.5 6.5t-6.5 14.5t6.5 14.5
t14.5 6.5h167q0 17 -12.5 29.5t-29.5 12.5h-250q-35 0 -59 24.5t-24 58.5h-167q-17 0 -29.5 -12.5t-12.5 -29.5v-83h167q8 0 14.5 -6.5t6.5 -14.5t-6.5 -14.5t-14.5 -6.5h-167v-291q0 -17 12.5 -29.5t29.5 -12.5h500zM500 300q17 0 29.5 -12.5t12.5 -29.5t-12.5 -29
t-29.5 -12h-83v-84q0 -17 -12.5 -29t-29.5 -12t-29.5 12t-12.5 29v84h-83q-17 0 -29.5 12t-12.5 29t12.5 29.5t29.5 12.5h83v83q0 17 12.5 29.5t29.5 12.5t29.5 -12.5t12.5 -29.5v-83h83z" />
    <glyph glyph-name="glyph124" unicode="&#xe07c;" 
d="M625 550q52 0 88.5 -36.5t36.5 -88.5v-333q0 -52 -36.5 -88.5t-88.5 -36.5h-500q-52 0 -88.5 36.5t-36.5 88.5v416q0 52 36.5 88.5t88.5 36.5h167q34 0 58.5 -24.5t24.5 -58.5h250zM125 550q-17 0 -29.5 -12.5t-12.5 -29.5v-83h584q0 17 -12.5 29.5t-29.5 12.5h-250
q-35 0 -59 24.5t-24 58.5h-167zM625 50q17 0 29.5 12.5t12.5 29.5v291h-584v-291q0 -17 12.5 -29.5t29.5 -12.5h500zM500 217h-250q-17 0 -29.5 12t-12.5 29t12.5 29.5t29.5 12.5h250q17 0 29.5 -12.5t12.5 -29.5t-12.5 -29t-29.5 -12z" />
    <glyph glyph-name="glyph125" unicode="&#xe07d;" horiz-adv-x="876" 
d="M846 467q16 0 24 -11.5t5 -30.5l-92 -333q-13 -53 -58.5 -89t-99.5 -36h-500q-53 0 -89 36t-36 89v416q0 53 36 89t89 36h171q34 0 58.5 -24.5t24.5 -58.5h250q40 0 72 -22.5t45 -60.5h100zM83 508v-387l67 262q6 19 20.5 30.5t33.5 11.5h463q0 19 -11.5 30.5t-30.5 11.5
h-250q-35 0 -59 24.5t-24 58.5h-167q-19 0 -30.5 -11.5t-11.5 -30.5zM704 112l75 271h-571q-3 0 -7.5 -2.5t-4.5 -5.5l-79 -292q-3 -12 -1.5 -19.5t5.5 -10.5l4 -3h500q25 0 49 18.5t30 43.5z" />
    <glyph glyph-name="glyph126" unicode="&#xe07e;" 
d="M625 550q52 0 88.5 -36.5t36.5 -88.5v-333q0 -52 -36.5 -88.5t-88.5 -36.5h-500q-52 0 -88.5 36.5t-36.5 88.5v416q0 52 36.5 88.5t88.5 36.5h167q34 0 58.5 -24.5t24.5 -58.5h250zM125 550q-17 0 -29.5 -12.5t-12.5 -29.5v-83h584q0 17 -12.5 29.5t-29.5 12.5h-250
q-35 0 -59 24.5t-24 58.5h-167zM625 50q17 0 29.5 12.5t12.5 29.5v291h-584v-291q0 -17 12.5 -29.5t29.5 -12.5h500z" />
    <glyph glyph-name="glyph127" unicode="&#xe07f;" 
d="M708 467q17 0 29.5 -12.5t12.5 -29.5v-167q0 -17 -12.5 -29t-29.5 -12v-209q0 -52 -36.5 -88.5t-88.5 -36.5h-416q-52 0 -88.5 36.5t-36.5 88.5v209q-17 0 -29.5 12t-12.5 29v167q0 17 12.5 29.5t29.5 12.5h98q-15 32 -15 62q0 60 43 103t103 43q62 0 104 -44
q42 44 104 44q60 0 103 -43t43 -103q0 -30 -15 -62h98zM667 300v83h-209v-83h209zM333 508v-41h84v41h-84zM417 383h-84v-83h84v83zM479 592q-20 0 -36.5 -12t-22.5 -31q16 -2 27 -13.5t11 -27.5v-37q12 -4 21 -4q26 0 44.5 18.5t18.5 43.5t-19 44t-44 19zM208 529
q0 -25 18.5 -43.5t44.5 -18.5q9 0 21 4v37q0 16 11 27.5t27 13.5q-6 19 -22.5 31t-36.5 12q-25 0 -44 -19t-19 -44zM292 383h-209v-83h209v83zM167 -33h125v291h-167v-250q0 -17 12.5 -29t29.5 -12zM333 -33h84v291h-84v-291zM583 -33q17 0 29.5 12t12.5 29v250h-167v-291
h125z" />
    <glyph glyph-name="glyph128" unicode="&#xe080;" horiz-adv-x="652" 
d="M277 550q-69 0 -117.5 -49t-48.5 -118t48.5 -117.5t117.5 -48.5t118 48.5t49 117.5t-49 118t-118 49zM277 633q103 0 176.5 -73.5t73.5 -176.5t-73.5 -176.5t-176.5 -73.5t-176.5 73.5t-73.5 176.5t73.5 176.5t176.5 73.5zM527 -33q17 0 29.5 -12.5t12.5 -29.5
t-12.5 -29.5t-29.5 -12.5h-416q-17 0 -29.5 12.5t-12.5 29.5t12.5 29.5t29.5 12.5h166v41q-155 0 -265 110q-12 12 -12 29.5t12 29.5t29.5 12t29.5 -12q85 -85 206 -85q122 0 207 85t85 206q0 122 -85 207l-30 29l86 85q12 12 29.5 12t29.5 -12t11.5 -29.5t-12.5 -29.5
l-28 -28q82 -102 82 -234q0 -155 -110 -265q-77 -77 -181 -100v-51h166z" />
    <glyph glyph-name="glyph129" unicode="&#xe081;" horiz-adv-x="652" 
d="M277 -33v41q-155 0 -265 110q-12 12 -12 29.5t12 29.5t29.5 12t29.5 -12q85 -85 206 -85q122 0 207 85t85 206q0 122 -85 207l-30 29l86 85q12 12 29.5 12t29.5 -12t11.5 -29t-12.5 -29l-28 -29q82 -102 82 -234q0 -155 -110 -265q-77 -77 -181 -100v-51h166
q17 0 29.5 -12.5t12.5 -29.5t-12.5 -29.5t-29.5 -12.5h-416q-17 0 -29.5 12.5t-12.5 29.5t12.5 29.5t29.5 12.5h166zM27 383q0 103 73.5 176.5t176.5 73.5t176.5 -73.5t73.5 -176.5t-73.5 -176.5t-176.5 -73.5t-176.5 73.5t-73.5 176.5z" />
    <glyph glyph-name="glyph130" unicode="&#xe082;" horiz-adv-x="958" 
d="M479 217q-86 0 -147 61t-61 147t61 147t147 61t147.5 -61t61.5 -147t-61.5 -147t-147.5 -61zM479 550q-52 0 -88.5 -36.5t-36.5 -88.5t36.5 -88.5t88.5 -36.5t88.5 36.5t36.5 88.5t-36.5 88.5t-88.5 36.5zM812 175q-44 0 -74 30.5t-30 73.5t30 73.5t74 30.5t74.5 -30.5
t30.5 -73.5t-30.5 -73.5t-74.5 -30.5zM812 342q-25 0 -43.5 -18.5t-18.5 -44.5q0 -25 18 -43.5t44 -18.5t44.5 18.5t18.5 43.5t-18.5 44t-44.5 19zM812 150q64 0 105 -27t41 -63q0 -18 -42 -32t-104 -14q-34 0 -66 5l1 -11q0 -33 -77 -58t-191 -25q-120 0 -193.5 25
t-73.5 58l1 12q-40 -6 -67 -6q-65 0 -105.5 14t-40.5 32q0 36 40 63t106 27q79 0 121 -40q79 65 212 65t212 -65q42 40 121 40zM146 56q48 0 82 9l10 14q-30 30 -92 30q-78 0 -101 -39q35 -14 101 -14zM479 8q105 0 173 24q-20 24 -65.5 42t-107.5 18q-65 0 -110 -18
t-64 -42q67 -24 174 -24zM812 56q67 0 101 15q-10 15 -36.5 26.5t-64.5 11.5q-61 0 -92 -29q4 -5 10 -15q32 -9 82 -9zM146 175q-44 0 -74 30.5t-30 73.5t30.5 73.5t73.5 30.5t73.5 -30.5t30.5 -73.5t-30 -73.5t-74 -30.5zM146 342q-26 0 -44.5 -19t-18.5 -44t18.5 -43.5
t44.5 -18.5t44 18.5t18 43.5q0 26 -18.5 44.5t-43.5 18.5z" />
    <glyph glyph-name="glyph131" unicode="&#xe083;" horiz-adv-x="958" 
d="M688 425q0 -86 -61.5 -147t-147.5 -61t-147 61t-61 147t61 147t147 61t147.5 -61t61.5 -147zM917 279q0 -43 -30.5 -73.5t-74.5 -30.5t-74 30.5t-30 73.5t30 73.5t74 30.5t74.5 -30.5t30.5 -73.5zM812 150q64 0 105 -27t41 -63q0 -18 -42 -32t-104 -14q-34 0 -66 5l1 -11
q0 -33 -77 -58t-191 -25q-120 0 -193.5 25t-73.5 58l1 12q-40 -6 -67 -6q-65 0 -105.5 14t-40.5 32q0 36 40 63t106 27q79 0 121 -40q79 65 212 65t212 -65q42 40 121 40zM250 279q0 -43 -30 -73.5t-74 -30.5t-74 30.5t-30 73.5t30 73.5t74 30.5q43 0 73.5 -30.5t30.5 -73.5
z" />
    <glyph glyph-name="glyph132" unicode="&#xe084;" 
d="M750 258v-108l-1 -5q1 -10 1 -33v-83q0 -60 -43 -103t-103 -43t-103 43t-43 103v83q0 47 23 84.5t60 52.5q-3 66 -51 112.5t-115 46.5t-115 -46.5t-51 -112.5q37 -15 60 -52.5t23 -84.5v-83q0 -60 -43 -103t-103 -43t-103 43t-43 103v83q0 23 1 33l-1 5v108
q0 155 110 265t265 110t265 -110t110 -265zM83 258v-41h42q0 41 1 41q6 79 54 139l-37 37q-60 -79 -60 -176zM208 29v83q0 27 -12.5 45t-28.5 18h-79q-5 -35 -5 -63v-83q0 -25 18.5 -43.5t44.5 -18.5t44 18.5t18 43.5zM517 404q11 11 32 31.5t31 30.5l26 26q-96 96 -231 96
t-231 -96l74 -74l15 -14q58 58 142 58t142 -58zM667 29v83q0 28 -5 63h-79q-16 0 -28.5 -18t-12.5 -45v-83q0 -25 18 -43.5t44 -18.5t44.5 18.5t18.5 43.5zM667 217v41q0 97 -60 176l-37 -37q49 -62 55 -139v-41h42z" />
    <glyph glyph-name="glyph133" unicode="&#xe085;" horiz-adv-x="808" 
d="M0 408q0 93 67 159t158 66q114 0 183 -95q32 44 78.5 69.5t96.5 25.5q94 0 159.5 -65.5t65.5 -159.5q0 -129 -83 -212q-30 -31 -101.5 -85t-132.5 -96.5t-62 -43.5q-18 -9 -25 -9t-25 9q-2 2 -62.5 44.5t-132 96.5t-101.5 84q-83 83 -83 212z" />
    <glyph glyph-name="glyph134" unicode="&#xe086;" horiz-adv-x="808" 
d="M0 408q0 93 67 159t158 66q114 0 183 -95q32 44 78.5 69.5t96.5 25.5q94 0 159.5 -65.5t65.5 -159.5q0 -129 -83 -212q-30 -31 -101.5 -85t-132.5 -96.5t-62 -43.5q-18 -9 -25 -9t-25 9q-2 2 -62.5 44.5t-132 96.5t-101.5 84q-83 83 -83 212zM408 367v-309q60 39 145 101
t118 95q62 62 62 154q0 59 -41 100.5t-100 41.5t-100.5 -41.5t-41.5 -100.5q0 -19 -11.5 -30t-30.5 -11z" />
    <glyph glyph-name="glyph135" unicode="&#xe087;" horiz-adv-x="812" 
d="M406 -33q-13 0 -23 7q-21 14 -67.5 46.5t-123.5 90t-107 87.5q-85 85 -85 211q0 93 65.5 158.5t158.5 65.5q114 0 182 -94q31 44 79.5 69t103.5 25q93 0 158 -65.5t65 -158.5q0 -126 -85 -211q-30 -30 -106 -87.5t-124 -90.5t-67 -46q-10 -7 -24 -7zM224 550
q-58 0 -99.5 -41t-41.5 -100q0 -91 61 -152q63 -63 262 -198q199 135 262 198q61 61 61 152q0 59 -41 100t-99 41q-59 0 -100 -41t-41 -100q0 -17 -12.5 -29t-29.5 -12t-29 12t-12 29q0 59 -41.5 100t-99.5 41z" />
    <glyph glyph-name="glyph136" unicode="&#xe088;" horiz-adv-x="729" 
d="M365 368q0 76 -53.5 129t-129.5 53t-129 -53t-53 -129q0 -110 73 -183l292 -218q225 152 291 218q73 73 73 183q0 76 -53 129t-129 53t-129 -53t-53 -129v0z" />
    <glyph glyph-name="glyph137" unicode="&#xe089;" horiz-adv-x="917" 
d="M886 364q31 -24 31 -64q0 -34 -24.5 -58.5t-59.5 -24.5h-41v-250q0 -35 -25 -59.5t-59 -24.5h-500q-34 0 -58.5 24.5t-24.5 59.5v250h-42q-35 0 -59 24.5t-24 58.5q0 37 29 63q63 53 163 139t169 145t70 60l27 23l28 -23q1 -1 69.5 -60t168.5 -145t162 -138zM542 -33v208
h-167v-208h167zM708 300h125q-185 155 -375 320q-190 -165 -375 -320h125v-333h125v250h250v-250h125v333z" />
    <glyph glyph-name="glyph138" unicode="&#xe08a;" horiz-adv-x="833" 
d="M417 675q257 -223 400 -343q16 -13 16 -32q0 -17 -12 -29.5t-29 -12.5h-84v-291q0 -17 -12 -29.5t-29 -12.5h-125q-17 0 -29.5 12.5t-12.5 29.5v166h-167v-166q0 -17 -12 -29.5t-29 -12.5h-125q-17 0 -29.5 12.5t-12.5 29.5v291h-83q-17 0 -29.5 12.5t-12.5 29.5t15 32z
" />
    <glyph glyph-name="glyph139" unicode="&#xe08b;" horiz-adv-x="583" 
d="M338 654v-62h-42v125h46l25 -46l29 46h42v-125h-42v62l-29 -46zM558 592h-100v125h42v-84h58v-41zM200 592v83h-38v42h117v-42h-37v-83h-42zM67 633v-41h-42v125h42v-42h37v42h42v-125h-42v41h-37zM0 550h583l-50 -600l-241 -67l-242 67zM471 358l8 71h-375l21 -221h258
l-8 -96l-83 -20l-84 20l-4 63h-75l13 -121l150 -42l150 42l20 229h-266l-8 75h283z" />
    <glyph glyph-name="glyph140" unicode="&#xe08c;" horiz-adv-x="833" 
d="M271 467q-25 0 -44 -18.5t-19 -44.5q0 -25 18.5 -43.5t44.5 -18.5q25 0 43.5 18t18.5 44t-18.5 44.5t-43.5 18.5zM271 508q43 0 73.5 -30t30.5 -74t-30.5 -74t-73.5 -30t-73.5 30t-30.5 74t30.5 74t73.5 30zM396 175q-39 0 -75 21t-71 21q-32 0 -67 -84h474
q-15 68 -37 116.5t-37 50.5q-27 0 -77 -56q-20 -22 -32.5 -33.5t-34 -23.5t-43.5 -12zM583 342q37 0 68 -62.5t44 -125.5l13 -62h-583q2 7 5 18t15 39.5t25 50.5t35 40t45 18q44 0 81 -20.5t65 -20.5q20 0 43.5 19.5t42 43t46 43t55.5 19.5zM833 550v-500q0 -34 -24.5 -58.5
t-58.5 -24.5h-667q-35 0 -59 24.5t-24 58.5v500q0 34 24 58.5t59 24.5h667q34 0 58.5 -24.5t24.5 -58.5zM750 50v500h-667v-500h667z" />
    <glyph glyph-name="glyph141" unicode="&#xe08d;" horiz-adv-x="833" 
d="M167 446q0 104 104 104t104 -104t-104 -104t-104 104zM583 383q33 0 62 -49q41 -74 63 -201h-583l13 42q14 43 44.5 84t67.5 41q43 0 101 -31q20 -11 45 -11q30 0 69 44q46 52 73 68q22 13 45 13zM0 592q0 34 24 58.5t59 24.5h667q34 0 58.5 -24.5t24.5 -58.5v-500
q0 -35 -24.5 -59.5t-58.5 -24.5h-667q-34 0 -58.5 24.5t-24.5 59.5v500zM750 92v500h-667v-500h667z" />
    <glyph glyph-name="glyph142" unicode="&#xe08e;" horiz-adv-x="896" 
d="M813 262q0 74 -53.5 127t-126.5 53q-75 0 -127 -52l-58 -56l-57 55q-53 53 -128 53q-73 0 -126.5 -53t-53.5 -127t53.5 -127t126.5 -53q75 0 127 52l58 56l57 -56q52 -52 127 -52q74 0 127.5 53.5t53.5 126.5zM633 525q109 0 186 -77t77 -186t-77 -186q-78 -78 -186 -78
q-109 0 -185 76q-76 -76 -185 -76q-108 0 -186 78q-77 77 -77 186t77 186t186 77q110 0 185 -75q75 75 185 75zM229 262q0 -14 10 -24t24 -10t24 10l26 24l-24 23q-11 11 -26 11q-14 0 -24 -10t-10 -24zM187 262q0 31 22.5 53.5t53.5 22.5q32 0 55 -23l55 -53l-56 -54
q-21 -21 -54 -21q-31 0 -53.5 22t-22.5 53zM667 262q0 14 -9.5 23.5t-24.5 9.5q-16 0 -25 -9l-25 -24l24 -23q11 -11 26 -11q14 0 24 10t10 24zM708 262q0 -31 -22 -53t-53 -22q-33 0 -55 22l-55 53l56 53q22 22 54 22q31 0 53 -22t22 -53z" />
    <glyph glyph-name="glyph143" unicode="&#xe08f;" horiz-adv-x="729" 
d="M0 262q0 74 53 127t127 53t127 -53l58 -55l58 56q52 52 126 52q73 0 126.5 -53t53.5 -127t-53.5 -127t-126.5 -53q-74 0 -127 53l-57 55l-59 -56q-52 -52 -126 -52t-127 53t-53 127zM180 338q-31 0 -53.5 -22.5t-22.5 -53.5q0 -32 22 -54t54 -22t54 22l55 54l-55 53
q-23 23 -54 23zM603 208q22 22 22 54t-22 54t-53.5 22t-53.5 -22l-56 -54l55 -53q22 -22 54 -22.5t54 21.5z" />
    <glyph glyph-name="glyph144" unicode="&#xe090;" horiz-adv-x="458" 
d="M343 133q40 -5 62 -41q15 -25 10 -55t-27 -49q-74 -63 -172 -63q-128 0 -176 98q-42 87 10 190l24 46q-41 5 -63 41q-15 25 -10 55t27 49q51 43 123 57q-26 42 -26 89q0 69 49 118t118 49t117.5 -49t48.5 -118q0 -50 -27.5 -91.5t-72.5 -61.5q32 -42 35 -98.5t-27 -119.5
zM292 633q-35 0 -59.5 -24.5t-24.5 -58.5t24.5 -58.5t59.5 -24.5q34 0 58.5 24.5t24.5 58.5t-24.5 58.5t-58.5 24.5zM216 8q31 0 60.5 10.5t43.5 21.5l13 10q-26 -9 -50 -9q-37 0 -45 26.5t12 65.5l42 83q35 73 8 120t-99 47q-31 0 -60.5 -10.5t-43.5 -20.5l-14 -10
q27 9 51 9q37 0 45 -27t-12 -65l-42 -83q-35 -73 -8 -120.5t99 -47.5z" />
    <glyph glyph-name="glyph145" unicode="&#xe091;" horiz-adv-x="333" 
d="M264 70q15 5 24.5 -9.5t-3.5 -26.5q-4 -4 -17.5 -13t-47 -21t-67.5 -12q-87 0 -119 63q-28 59 10 134l42 83q22 44 2 58q-4 4 -17 4q-9 0 -19.5 -2t-17.5 -4l-6 -2q-15 -5 -24.5 9t3.5 26q5 5 17.5 13.5t46 21t67.5 12.5q89 0 120 -63q28 -59 -10 -134l-42 -83
q-22 -45 -2 -59q3 -3 17 -3q9 0 19.5 2t17.5 4zM125 550q0 104 104 104t104 -104t-104 -104t-104 104z" />
    <glyph glyph-name="glyph146" unicode="&#xe092;" horiz-adv-x="819" 
d="M410 570q-39 0 -65 -44l-246 -411q-26 -44 -8.5 -75.5t69.5 -31.5h500q52 0 69.5 32t-9.5 76l-246 410q-26 44 -64 44zM160 -75q-67 0 -113.5 38t-46.5 102q0 45 28 93l246 411q50 85 136 85q85 0 135 -85l247 -411q51 -85 10 -159q-43 -74 -142 -74h-500zM472 102
q-4 -4 -10.5 -10t-28.5 -15.5t-45 -8.5q-31 2 -44 26.5t-1 61.5l17 51q12 36 -10 48q-8 3 -18 1.5t-18 -4.5l-8 -4q4 4 10.5 10t28.5 15.5t45 8.5q31 -2 44 -27t1 -62l-17 -51q-11 -36 10 -47q8 -3 18 -1.5t18 4.5zM355 383q0 55 55 55q54 0 54 -55q0 -54 -54 -54
q-55 0 -55 54z" />
    <glyph glyph-name="glyph147" unicode="&#xe093;" horiz-adv-x="819" 
d="M160 -75q-67 0 -113.5 38t-46.5 103q0 45 28 92l246 411q50 85 136 85q85 0 135 -85l247 -411q27 -44 27 -93q0 -38 -17 -66q-43 -74 -142 -74h-500zM410 448q-27 0 -46 -19t-19 -46q0 -26 19.5 -45t45.5 -19q27 0 45.5 19t18.5 45t-19 45.5t-45 19.5zM480 95q6 7 0 12.5
t-12 2.5q-20 -8 -30 -8l-6 1q-14 6 -4 35l17 51q13 41 -3 71t-52 32q-25 1 -48 -8.5t-32.5 -18t-11.5 -11.5q-6 -7 -0.5 -13t12.5 -3q20 8 30 8l6 -1q14 -6 4 -35l-17 -51q-14 -41 2.5 -70.5t52.5 -31.5h6q24 0 45.5 9.5t30.5 17.5t10 11z" />
    <glyph glyph-name="glyph148" unicode="&#xe094;" horiz-adv-x="625" 
d="M500 633q69 0 107 -60t2 -125l-26 -46v-269q0 -52 -36.5 -88.5t-88.5 -36.5h-333q-52 0 -88.5 36.5t-36.5 88.5v334q0 52 36.5 88.5t88.5 36.5h283q36 41 92 41zM464 529l-141 -243l-85 85q-12 12 -30 12q-17 0 -29 -12t-12 -29.5t12 -29.5l125 -125q12 -12 29 -12
q27 2 37 21l167 292q6 20 3 32q-5 17 -21 25.5t-36 0.5q-14 -7 -19 -17zM458 92q17 0 29.5 12t12.5 29v207l-94 -164q-20 -36 -61 -42l-12 -1q-34 0 -59 25l-125 125q-25 25 -25 59t25 59q24 24 59 24t59 -24l47 -47l90 154h-279q-17 0 -29.5 -12t-12.5 -29v-334
q0 -17 12.5 -29t29.5 -12h333z" />
    <glyph glyph-name="glyph149" unicode="&#xe095;" horiz-adv-x="583" 
d="M458 8h-333q-52 0 -88.5 36.5t-36.5 88.5v334q0 52 36.5 88.5t88.5 36.5h208q17 0 29.5 -12.5t12.5 -29.5t-12.5 -29.5t-29.5 -12.5h-208q-17 0 -29.5 -12t-12.5 -29v-334q0 -17 12.5 -29t29.5 -12h333q17 0 29.5 12t12.5 29v125q0 17 12.5 29.5t29.5 12.5t29 -12.5
t12 -29.5v-125q0 -52 -36.5 -88.5t-88.5 -36.5zM340 182q-23 0 -39 16l-111 111q-16 17 -16 40t16 39t39 16t39 -16l60 -59l144 227q11 20 33.5 26.5t42.5 -4.5t26 -33.5t-5 -42.5l-180 -291q-14 -26 -49 -29z" />
    <glyph glyph-name="glyph150" unicode="&#xe096;" horiz-adv-x="646" 
d="M250 -75h-250v184l158 158q-12 36 -12 75q0 104 73 177t177 73t177 -73t73 -177t-73 -177t-177 -73h-63v-84h-83v-83zM83 8h84v84h83v83h146q69 0 117.5 49t48.5 118t-48.5 117.5t-117.5 48.5t-118 -48.5t-49 -117.5q0 -36 15 -69l12 -26l-173 -173v-66zM396 383
q-17 0 -29.5 -12t-12.5 -29t12.5 -29.5t29.5 -12.5t29.5 12.5t12.5 29.5t-12.5 29t-29.5 12zM396 425q34 0 58.5 -24.5t24.5 -58.5q0 -35 -24.5 -59.5t-58.5 -24.5t-59 25t-25 59t24.5 58.5t59.5 24.5z" />
    <glyph glyph-name="glyph151" unicode="&#xe097;" horiz-adv-x="562" 
d="M146 342q0 86 61 147t147 61t147 -61t61 -147t-61 -147.5t-147 -61.5h-104v-83h-83v-83h-84q-20 0 -41 15.5t-32 31.5l-10 15v63l165 164q-19 41 -19 86zM354 258q34 0 59 25t25 59t-24.5 58.5t-59.5 24.5q-34 0 -58.5 -24.5t-24.5 -58.5q0 -35 24.5 -59.5t58.5 -24.5z
" />
    <glyph glyph-name="glyph152" unicode="&#xe098;" horiz-adv-x="833" 
d="M250 258h292v-83h-292v83zM125 258h83v-83h-83v83zM125 425h83v-42h-83v42zM250 300h-125v42h125v-42zM250 425h42v-42h-42v42zM292 342h41v-42h-41v42zM333 425h42v-42h-42v42zM375 342h42v-42h-42v42zM417 425h41v-42h-41v42zM458 342h42v-42h-42v42zM500 425h42v-42
h-42v42zM542 342h41v-42h-41v42zM583 425h42v-42h-42v42zM625 300v42h42v83h41v-125h-83zM667 258v-41h41v-42h-125v42h42v41h42zM750 550q34 0 58.5 -24t24.5 -59v-334q0 -35 -24.5 -59t-58.5 -24h-667q-35 0 -59 24t-24 59v334q0 35 24 59t59 24h667zM750 133v334h-667
v-334h667z" />
    <glyph glyph-name="glyph153" unicode="&#xe099;" horiz-adv-x="708" 
d="M708 342q0 -144 -87 -257.5t-225 -150.5v-51q0 -17 -12.5 -29t-29.5 -12t-29.5 12t-12.5 29v51q-138 37 -225 150.5t-87 257.5q0 153 98 270.5t249 145.5l7 1l8 -1q151 -28 248.5 -145.5t97.5 -270.5zM396 21q102 35 165.5 123t63.5 198q0 121 -76.5 214.5t-194.5 117.5
q-118 -24 -194.5 -117.5t-76.5 -214.5q0 -109 64 -197.5t166 -123.5v125l-182 181q-9 9 -5 20t14.5 14t20.5 -5l152 -152v150l-99 98q-9 9 -5 20t14.5 14t20.5 -5l68 -68v137q0 17 12.5 29.5t29.5 12.5t29.5 -12.5t12.5 -29.5v-137l68 68q9 9 20.5 5t14.5 -14t-5 -20
l-98 -98v-150l152 152q14 14 28.5 -0.5t0.5 -28.5l-181 -181v-125z" />
    <glyph glyph-name="glyph154" unicode="&#xe09a;" horiz-adv-x="625" 
d="M312 571q51 0 87.5 -36.5t36.5 -87.5q0 -9 -6 -15t-15 -6t-15 6t-6 15q0 34 -24 58t-58 24q-20 0 -20 21t20 21zM312 -117q-17 0 -29 12.5t-12 29.5h-83q-17 0 -29.5 12.5t-12.5 29.5v125q0 25 -18 61t-72 114l-3 5q-53 79 -53 174q0 129 91.5 220.5t220.5 91.5
t221 -91.5t92 -220.5q0 -97 -57 -179q-54 -77 -71.5 -112.5t-17.5 -62.5v-125q0 -17 -12 -29.5t-29 -12.5h-84q0 -17 -12.5 -29.5t-29.5 -12.5zM396 8v42h-167v-42h167zM500 314q42 61 42 132q0 94 -67.5 161.5t-162.5 67.5q-94 0 -161.5 -67.5t-67.5 -161.5q0 -70 42 -131
l3 -6q82 -117 96 -176h47v84q0 17 12 29t29 12t29.5 -12t12.5 -29v-84h46q13 57 100 181z" />
    <glyph glyph-name="glyph155" unicode="&#xe09b;" horiz-adv-x="758" 
d="M629 550q-19 0 -32 -13l-72 -72l-13 13q-36 36 -91 36t-91 -36l-174 -174q-38 -38 -38 -92q0 -53 38 -91l12 -13l-71 -71q-13 -13 -13 -32t13 -33q14 -14 32 -14q19 0 33 14l71 72l13 -13q38 -38 92 -38q53 0 91 38l174 174q37 37 37 91t-37 91l-13 13l72 72q14 14 14 33
t-14 32q-13 13 -33 13zM129 -125q-53 0 -91 38.5t-38 90.5q0 54 38 92l20 20q-23 46 -23 96q0 89 62 151l174 174q61 61 150 61q52 0 96 -23l21 21q37 37 91 37q53 0 91 -38.5t38 -90.5q0 -55 -38 -91l-20 -20q24 -48 24 -97q0 -87 -63 -150l-173 -174q-62 -62 -151 -62
q-51 0 -97 23l-20 -20q-38 -38 -91 -38zM460 250q-34 1 -59 26t-26 59l-76 -77q34 -1 58.5 -25.5t25.5 -58.5zM421 424q15 0 26 -11l13 -13l-30 -30q-14 -14 -14 -33t14 -32q13 -13 32 -13q20 0 33 13l30 30l13 -13q11 -11 11 -26q0 -16 -11 -27l-174 -173q-11 -11 -26 -11
q-16 0 -27 11l-13 12l30 30q14 14 14 33t-14 32q-14 14 -32 14q-19 0 -33 -14l-30 -30l-13 13q-10 10 -10 26q0 17 10 27l174 174q11 11 27 11z" />
    <glyph glyph-name="glyph156" unicode="&#xe09c;" horiz-adv-x="592" 
d="M578 537q14 -13 14 -32t-14 -33l-71 -72l12 -13q38 -38 38 -91t-38 -91l-173 -174q-38 -38 -92 -38q-53 0 -91 38l-13 13l-72 -72q-14 -14 -32 -14q-19 0 -33 14q-13 14 -13 33t13 32l72 71l-13 13q-37 37 -37 92q0 54 37 91l174 174q37 37 91.5 37t91.5 -37l13 -13
l71 72q13 13 32 13t33 -13zM455 269q10 10 10 27q0 16 -10 26l-13 13l-30 -30q-13 -13 -33 -13q-19 0 -32 13t-13 32t13 33l30 30l-13 13q-11 11 -26 11q-16 0 -27 -11l-174 -174q-11 -11 -11 -26q0 -16 11 -27l13 -13l30 30q14 14 33 14q18 0 32 -14q13 -13 13 -32t-13 -33
l-30 -30l13 -12q11 -11 26 -11q16 0 27 11z" />
    <glyph glyph-name="glyph157" unicode="&#xe09d;" horiz-adv-x="636" 
d="M333 -71q-48 0 -69 62l-51 151l-151 50q-59 19 -62 67q-3 46 54 72l474 222q33 15 58.5 10t39.5 -26q20 -33 -2 -80l-221 -474q-25 -54 -70 -54zM109 265l170 -57l57 -171l199 427z" />
    <glyph glyph-name="glyph158" unicode="&#xe09e;" horiz-adv-x="552" 
d="M262 4l-57 171l-171 57q-22 7 -30 18t-1.5 23t27.5 21l474 221q32 14 43.5 2.5t-2.5 -43.5l-222 -474q-9 -21 -20.5 -27.5t-22.5 1.5t-18 30z" />
    <glyph glyph-name="glyph159" unicode="&#xe09f;" horiz-adv-x="667" 
d="M333 592q-103 0 -177 -72q-73 -71 -73 -173q0 -101 73 -172l177 -175l178 175q72 70 72 172q0 103 -72 173q-74 72 -178 72zM333 675q139 0 236 -96t97 -232t-97 -232l-236 -232l-235 232q-98 96 -98 232t98 232t235 96zM333 446q-42 0 -73 -31t-31 -73.5t31 -73.5
q30 -30 73 -30q44 0 74 30q31 31 31 73.5t-31 73.5t-74 31zM333 488q60 0 103 -43t43 -103t-43 -103t-103 -43t-103 43t-43 103t43 103t103 43z" />
    <glyph glyph-name="glyph160" unicode="&#xe0a0;" horiz-adv-x="667" 
d="M569 579q97 -96 97 -232t-97 -232l-236 -232l-235 232q-98 96 -98 232t98 232t236 96t235 -96zM333 238q44 0 74 30q31 31 31 73.5t-31 73.5t-74 31q-42 0 -73 -31t-31 -73.5t31 -73.5q30 -30 73 -30z" />
    <glyph glyph-name="glyph161" unicode="&#xe0a1;" horiz-adv-x="583" 
d="M238 92q0 54 54 54t54 -54t-54 -54t-54 54zM292 633q68 0 117 -49t49 -117v-84h42q34 0 58.5 -24.5t24.5 -58.5v-292q0 -34 -24.5 -58.5t-58.5 -24.5h-417q-35 0 -59 24.5t-24 58.5v292q0 34 24 58.5t59 24.5h42v84q0 48 23.5 85.5t59.5 58.5q38 22 84 22zM292 550
q-35 0 -59.5 -24.5t-24.5 -58.5v-125h167v125q0 35 -24.5 59t-58.5 24zM500 8v292h-417v-292h417z" />
    <glyph glyph-name="glyph162" unicode="&#xe0a2;" horiz-adv-x="583" 
d="M500 383q34 0 58.5 -24.5t24.5 -58.5v-292q0 -34 -24.5 -58.5t-58.5 -24.5h-417q-35 0 -59 24.5t-24 58.5v292q0 34 24 58.5t59 24.5h42v84q0 69 49 117.5t118 48.5t117.5 -48.5t48.5 -117.5v-84h42zM292 38q22 0 38 16t16 38t-16 38t-38 16t-38 -16t-16 -38t16 -38
t38 -16zM375 342v125q0 35 -24.5 59t-58.5 24q-35 0 -59.5 -24.5t-24.5 -58.5v-125h167z" />
    <glyph glyph-name="glyph163" unicode="&#xe0a3;" horiz-adv-x="708" 
d="M238 92q0 54 54 54t54 -54t-54 -54t-54 54zM0 300q0 34 24 58.5t59 24.5h125v-41h167v125q0 55 28.5 94.5t73.5 58.5q30 13 65 13q68 0 117 -49t49 -117v-125q0 -17 -12 -29.5t-29 -12.5t-29.5 12.5t-12.5 29.5v125q0 35 -24.5 59t-58.5 24q-35 0 -59.5 -24.5
t-24.5 -58.5v-84h42q34 0 58.5 -24.5t24.5 -58.5v-292q0 -34 -24.5 -58.5t-58.5 -24.5h-417q-35 0 -59 24.5t-24 58.5v292zM500 8v292h-417v-292h417z" />
    <glyph glyph-name="glyph164" unicode="&#xe0a4;" horiz-adv-x="708" 
d="M542 633q69 0 117.5 -48.5t48.5 -117.5v-125q0 -17 -12 -29.5t-29 -12.5t-29.5 12.5t-12.5 29.5v125q0 35 -24.5 59t-58.5 24q-35 0 -59.5 -24.5t-24.5 -58.5v-84h42q34 0 58.5 -24.5t24.5 -58.5v-292q0 -34 -24.5 -58.5t-58.5 -24.5h-417q-35 0 -59 24.5t-24 58.5v292
q0 34 24 58.5t59 24.5h125v-41h167v125q0 69 49 117.5t118 48.5zM292 38q22 0 38 16t16 38t-16 38t-38 16t-38 -16t-16 -38t16 -38t38 -16z" />
    <glyph glyph-name="glyph165" unicode="&#xe0a5;" 
d="M667 508q35 0 59 -24t24 -59v-375q0 -34 -24 -58.5t-59 -24.5h-584q-35 0 -59 24.5t-24 58.5v375q0 35 24 59t59 24h584zM330 145l-65 57l-152 -152h524l-152 152l-65 -57q-19 -16 -45 -16t-45 16zM83 79l150 151l-150 131v-282zM517 230l150 -150v281zM667 425h-584v-9
l274 -240q7 -6 18 -6t18 6l274 240v9z" />
    <glyph glyph-name="glyph166" unicode="&#xe0a6;" horiz-adv-x="667" 
d="M42 -33q-18 0 -30 12.5t-12 28.5v417q0 17 12 29l188 188q11 11 27 12t28 -9l179 -143l162 161q20 20 45.5 8t25.5 -38v-416q0 -17 -13 -30l-187 -187q-11 -11 -27.5 -12t-28.5 9l-179 143l-161 -161q-12 -12 -29 -12zM83 109q122 120 125 122v302l-125 -125v-299z
M255 228l162 -129v311l-167 132v-311zM583 234v299q-122 -121 -125 -123v-301z" />
    <glyph glyph-name="glyph167" unicode="&#xe0a7;" horiz-adv-x="583" 
d="M458 -75h-333q-52 0 -88.5 36.5t-36.5 88.5t36.5 88.5t88.5 36.5h333q52 0 88.5 -36.5t36.5 -88.5t-36.5 -88.5t-88.5 -36.5zM125 92q-17 0 -29.5 -12.5t-12.5 -29.5t12.5 -29.5t29.5 -12.5h333q17 0 29.5 12.5t12.5 29.5t-12.5 29.5t-29.5 12.5h-333zM292 514l-205 -211
l-4 -3h417q-34 36 -104 107t-104 107zM292 633q161 -165 268 -275q23 -23 23 -58q0 -34 -24.5 -58.5t-58.5 -24.5h-417q-35 0 -59 24.5t-24 58.5t24 58z" />
    <glyph glyph-name="glyph168" unicode="&#xe0a8;" horiz-adv-x="583" 
d="M500 133q34 0 58.5 -24.5t24.5 -58.5t-24.5 -58.5t-58.5 -24.5h-417q-35 0 -59 24.5t-24 58.5t24 58.5t59 24.5h417zM560 358q23 -23 23 -58q0 -34 -24.5 -58.5t-58.5 -24.5h-417q-35 0 -59 24.5t-24 58.5t24 58l268 275q161 -165 268 -275z" />
    <glyph glyph-name="glyph169" unicode="&#xe0a9;" 
d="M458 438v-335l173 168zM450 533q29 0 52 -21l248 -241q-149 -145 -248 -241q-22 -22 -52 -22q-31 0 -53 22t-22 53v375q0 31 22 53t53 22zM83 438v-335l173 168zM75 533q29 0 52 -21l248 -241q-149 -145 -248 -241q-22 -22 -52 -22q-31 0 -53 22t-22 53v375q0 31 22 53
t53 22z" />
    <glyph glyph-name="glyph170" unicode="&#xe0aa;" 
d="M502 512l248 -241q-149 -145 -248 -241q-22 -22 -52 -22q-31 0 -53 22t-22 53v375q0 31 22 53t53 22q29 0 52 -21zM127 512l248 -241q-149 -145 -248 -241q-22 -22 -52 -22q-31 0 -53 22t-22 53v375q0 31 22 53t53 22q29 0 52 -21z" />
    <glyph glyph-name="glyph171" unicode="&#xe0ab;" horiz-adv-x="542" 
d="M125 -33q-52 0 -88.5 36.5t-36.5 88.5v375q0 52 36.5 88.5t88.5 36.5t88.5 -36.5t36.5 -88.5v-375q0 -52 -36.5 -88.5t-88.5 -36.5zM125 508q-17 0 -29.5 -12t-12.5 -29v-375q0 -17 12.5 -29.5t29.5 -12.5t29.5 12.5t12.5 29.5v375q0 17 -12.5 29t-29.5 12zM417 -33
q-52 0 -88.5 36.5t-36.5 88.5v375q0 52 36.5 88.5t88.5 36.5t88.5 -36.5t36.5 -88.5v-375q0 -52 -36.5 -88.5t-88.5 -36.5zM417 508q-17 0 -29.5 -12t-12.5 -29v-375q0 -17 12.5 -29.5t29.5 -12.5t29 12.5t12 29.5v375q0 17 -12 29t-29 12z" />
    <glyph glyph-name="glyph172" unicode="&#xe0ac;" horiz-adv-x="458" 
d="M83 550q35 0 59.5 -24.5t24.5 -58.5v-334q0 -34 -24.5 -58.5t-59.5 -24.5t-59 24t-24 59v334q0 35 24 59t59 24zM375 550q35 0 59 -24t24 -59v-334q0 -35 -24 -59t-59 -24t-59 24t-24 59v334q0 35 24 59t59 24z" />
    <glyph glyph-name="glyph173" unicode="&#xe0ad;" horiz-adv-x="417" 
d="M83 508v-416q35 35 106.5 104t107.5 104l-210 205zM83 592q35 0 59 -24l275 -268q-166 -161 -276 -268q-24 -24 -58 -24t-58.5 24.5t-24.5 59.5v416q0 35 24.5 59.5t58.5 24.5z" />
    <glyph glyph-name="glyph174" unicode="&#xe0ae;" horiz-adv-x="417" 
d="M333 508l-212 -208l212 -208v416zM275 567q25 25 58 25q35 0 59.5 -25t24.5 -59v-416q0 -34 -24.5 -59t-59.5 -25q-33 0 -58 25l-275 267q167 163 275 267z" />
    <glyph glyph-name="glyph175" unicode="&#xe0af;" horiz-adv-x="417" 
d="M333 8q-33 0 -58 25l-275 267q167 163 275 267q25 25 58 25q35 0 59.5 -25t24.5 -59v-416q0 -34 -24.5 -59t-59.5 -25z" />
    <glyph glyph-name="glyph176" unicode="&#xe0b0;" horiz-adv-x="417" 
d="M142 32q-24 -24 -59 -24q-34 0 -58.5 24.5t-24.5 59.5v416q0 35 24.5 59.5t58.5 24.5q35 0 59 -24l275 -268q-165 -161 -275 -268z" />
    <glyph glyph-name="glyph177" unicode="&#xe0b1;" horiz-adv-x="500" 
d="M250 467q-69 0 -118 -49t-49 -118t49 -118t118 -49t118 49t49 118t-49 118t-118 49zM250 550q104 0 177 -73t73 -177t-73 -177t-177 -73t-177 73t-73 177t73 177t177 73z" />
    <glyph glyph-name="glyph178" unicode="&#xe0b2;" horiz-adv-x="500" 
d="M250 550q104 0 177 -73t73 -177t-73 -177t-177 -73t-177 73t-73 177t73 177t177 73z" />
    <glyph glyph-name="glyph179" unicode="&#xe0b3;" 
d="M292 438l-173 -167l173 -168v335zM300 533q31 0 53 -22t22 -53v-375q0 -31 -22 -53t-53 -22q-28 0 -52 22l-248 241q149 145 248 241q21 21 52 21zM667 438l-173 -167l173 -168v335zM675 533q31 0 53 -22t22 -53v-375q0 -31 -22 -53t-53 -22q-28 0 -52 22l-248 241
q149 145 248 241q21 21 52 21z" />
    <glyph glyph-name="glyph180" unicode="&#xe0b4;" 
d="M300 533q31 0 53 -22t22 -53v-375q0 -31 -22 -53t-53 -22q-28 0 -52 22l-248 241q149 145 248 241q21 21 52 21zM675 533q31 0 53 -22t22 -53v-375q0 -31 -22 -53t-53 -22q-28 0 -52 22l-248 241q149 145 248 241q21 21 52 21z" />
    <glyph glyph-name="glyph181" unicode="&#xe0b5;" horiz-adv-x="500" 
d="M417 467h-334v-334h334v334zM417 550q35 0 59 -24t24 -59v-334q0 -35 -24 -59t-59 -24h-334q-35 0 -59 24t-24 59v334q0 35 24 59t59 24h334z" />
    <glyph glyph-name="glyph182" unicode="&#xe0b6;" horiz-adv-x="500" 
d="M417 550q35 0 59 -24t24 -59v-334q0 -35 -24 -59t-59 -24h-334q-35 0 -59 24t-24 59v334q0 35 24 59t59 24h334z" />
    <glyph glyph-name="glyph183" unicode="&#xe0b7;" horiz-adv-x="792" 
d="M667 550q52 0 88.5 -36.5t36.5 -88.5v-292q0 -52 -36.5 -88.5t-88.5 -36.5h-375l-125 -125v125h-42q-52 0 -88.5 36.5t-36.5 88.5v292q0 52 36.5 88.5t88.5 36.5h542zM708 133v292q0 17 -12 29.5t-29 12.5h-542q-17 0 -29.5 -12.5t-12.5 -29.5v-292q0 -17 12.5 -29
t29.5 -12h542q17 0 29 12t12 29zM208 196q-34 0 -58.5 24t-24.5 59t24.5 59t58.5 24q35 0 59.5 -24.5t24.5 -58.5t-24.5 -58.5t-59.5 -24.5zM208 321q-17 0 -29 -12.5t-12 -29.5t12 -29t29 -12t29.5 12t12.5 29t-12.5 29.5t-29.5 12.5zM396 196q-35 0 -59.5 24.5t-24.5 58.5
t24.5 58.5t59.5 24.5q34 0 58.5 -24t24.5 -59t-24.5 -59t-58.5 -24zM396 321q-17 0 -29.5 -12.5t-12.5 -29.5t12.5 -29t29.5 -12t29.5 12t12.5 29t-12.5 29.5t-29.5 12.5zM583 196q-35 0 -59 24t-24 59t24 59t59 24t59.5 -24.5t24.5 -58.5t-24.5 -58.5t-59.5 -24.5zM583 321
q-17 0 -29 -12.5t-12 -29.5t12 -29t29 -12t29.5 12t12.5 29t-12.5 29.5t-29.5 12.5z" />
    <glyph glyph-name="glyph184" unicode="&#xe0b8;" 
d="M625 508h-500q-17 0 -29.5 -12t-12.5 -29v-292q0 -17 12.5 -29.5t29.5 -12.5h125v-7l7 7h368q17 0 29.5 12.5t12.5 29.5v292q0 17 -12.5 29t-29.5 12zM625 592q52 0 88.5 -36.5t36.5 -88.5v-292q0 -52 -36.5 -88.5t-88.5 -36.5h-333l-125 -125v125h-42q-52 0 -88.5 36.5
t-36.5 88.5v292q0 52 36.5 88.5t88.5 36.5h500z" />
    <glyph glyph-name="glyph185" unicode="&#xe0b9;" horiz-adv-x="1000" 
d="M875 508q52 0 88.5 -36.5t36.5 -88.5v-291q0 -52 -36.5 -88.5t-88.5 -36.5h-42v-125l-125 125h-333q-52 0 -88.5 36.5t-36.5 88.5l-125 -125v125q-52 0 -88.5 36.5t-36.5 88.5v291q0 52 36.5 88.5t88.5 36.5h500q52 0 88.5 -36.5t36.5 -88.5h125zM125 175h167v187
q0 43 30.5 74t73.5 31h271v41q0 17 -12.5 29.5t-29.5 12.5h-500q-17 0 -29.5 -12.5t-12.5 -29.5v-291q0 -17 12.5 -29.5t29.5 -12.5zM917 92v291q0 17 -12.5 29.5t-29.5 12.5h-479q-26 0 -44.5 -18.5t-18.5 -44.5v-270q0 -17 12.5 -29.5t29.5 -12.5h500q17 0 29.5 12.5
t12.5 29.5z" />
    <glyph glyph-name="glyph186" unicode="&#xe0ba;" horiz-adv-x="583" 
d="M292 133q-69 0 -118 49t-49 118v250q0 69 49 118t118 49t117.5 -49t48.5 -118v-250q0 -69 -48.5 -118t-117.5 -49zM292 633q-35 0 -59.5 -24.5t-24.5 -58.5v-250q0 -34 24.5 -58.5t59.5 -24.5q34 0 58.5 24.5t24.5 58.5v250q0 34 -24.5 58.5t-58.5 24.5zM583 300
q0 -109 -71.5 -191t-178.5 -97v-45h125q17 0 29.5 -12.5t12.5 -29.5t-12.5 -29.5t-29.5 -12.5h-333q-17 0 -29.5 12.5t-12.5 29.5t12.5 29.5t29.5 12.5h125v45q-107 15 -178.5 97t-71.5 191v83q0 17 12.5 29.5t29.5 12.5t29 -12.5t12 -29.5v-83q0 -86 61.5 -147t147.5 -61
t147 61t61 147v83q0 17 12.5 29.5t29.5 12.5t29 -12.5t12 -29.5v-83z" />
    <glyph glyph-name="glyph187" unicode="&#xe0bb;" horiz-adv-x="583" 
d="M292 133q-69 0 -118 49t-49 118v250q0 69 49 118t118 49t117.5 -49t48.5 -118v-250q0 -69 -48.5 -118t-117.5 -49zM583 300q0 -109 -71.5 -191t-178.5 -97v-45h125q17 0 29.5 -12.5t12.5 -29.5t-12.5 -29.5t-29.5 -12.5h-333q-17 0 -29.5 12.5t-12.5 29.5t12.5 29.5
t29.5 12.5h125v45q-107 15 -178.5 97t-71.5 191v83q0 17 12.5 29.5t29.5 12.5t29 -12.5t12 -29.5v-83q0 -86 61.5 -147t147.5 -61t147 61t61 147v83q0 17 12.5 29.5t29.5 12.5t29 -12.5t12 -29.5v-83z" />
    <glyph glyph-name="glyph188" unicode="&#xe0bc;" 
d="M625 133h-500q-52 0 -88.5 36.5t-36.5 88.5t36.5 88.5t88.5 36.5h500q52 0 88.5 -36.5t36.5 -88.5t-36.5 -88.5t-88.5 -36.5zM125 300q-17 0 -29.5 -12.5t-12.5 -29.5t12.5 -29t29.5 -12h500q17 0 29.5 12t12.5 29t-12.5 29.5t-29.5 12.5h-500z" />
    <glyph glyph-name="glyph189" unicode="&#xe0bd;" horiz-adv-x="667" 
d="M583 342q35 0 59.5 -25t24.5 -59t-24.5 -58.5t-59.5 -24.5h-500q-35 0 -59 24.5t-24 58.5q0 35 24.5 59.5t58.5 24.5h500z" />
    <glyph glyph-name="glyph190" unicode="&#xe0be;" horiz-adv-x="833" 
d="M771 471q55 -25 62 -79q0 -66 -54 -96l-46 -25q17 -67 17 -113q0 -88 -94 -148t-231 -60q-172 0 -267 88q-3 -1 -8.5 -2t-23.5 -3.5t-34 0.5q-32 3 -62 36.5t-30 76.5q0 87 12 137l13 63q-8 17 -8 50q0 24 18 47t44 36q225 113 279 138q42 21 65.5 20.5t59.5 -20.5z
M429 38q102 0 172 36.5t70 87.5l-17 117l-179 -87q-49 -20 -92 0l-175 87l-20 -117q0 -53 70 -88.5t171 -35.5zM733 375q13 6 13 14.5t-13 14.5q-262 134 -279 142q-27 13 -54 0l-279 -142q-13 -6 -13 -14.5t13 -14.5l8 -4q-13 -33 -25 -92q-12 -62 -12 -129q0 -15 10 -24
t23 -9h4q29 0 29 33q0 6 -4 46.5t-4 74.5q0 52 12 83l238 -121q29 -14 58 0z" />
    <glyph glyph-name="glyph191" unicode="&#xe0bf;" horiz-adv-x="917" 
d="M833 633q35 0 59.5 -24.5t24.5 -58.5v-500q0 -34 -24.5 -58.5t-59.5 -24.5h-750q-35 0 -59 24.5t-24 58.5v500q0 34 24 58.5t59 24.5h750zM83 550v-500h334v500h-334zM833 50v500h-375v-500h375zM792 238v-126q0 -8 -6.5 -14t-14.5 -6h-42q-8 0 -14.5 6t-6.5 14v126
q0 8 6.5 14t14.5 6h42q8 0 14.5 -6t6.5 -14zM667 488v-209q0 -8 -6.5 -14.5t-14.5 -6.5h-125q-8 0 -14.5 6.5t-6.5 14.5v209q0 8 6.5 14t14.5 6h125q8 0 14.5 -6t6.5 -14zM729 383q-8 0 -14.5 6.5t-6.5 14.5t6.5 14.5t14.5 6.5h42q8 0 14.5 -6.5t6.5 -14.5t-6.5 -14.5
t-14.5 -6.5h-42zM729 300q-8 0 -14.5 6.5t-6.5 14.5t6.5 14.5t14.5 6.5h42q8 0 14.5 -6.5t6.5 -14.5t-6.5 -14.5t-14.5 -6.5h-42zM521 175q-8 0 -14.5 6.5t-6.5 14.5t6.5 14.5t14.5 6.5h125q8 0 14.5 -6.5t6.5 -14.5t-6.5 -14.5t-14.5 -6.5h-125zM646 133q8 0 14.5 -6.5
t6.5 -14.5t-6.5 -14t-14.5 -6h-125q-8 0 -14.5 6t-6.5 14t6.5 14.5t14.5 6.5h125zM729 467q-8 0 -14.5 6.5t-6.5 14.5t6.5 14t14.5 6h42q8 0 14.5 -6t6.5 -14t-6.5 -14.5t-14.5 -6.5h-42zM375 488v-126q0 -8 -6.5 -14t-14.5 -6h-208q-8 0 -14.5 6t-6.5 14v126q0 8 6.5 14
t14.5 6h208q8 0 14.5 -6t6.5 -14zM354 217q8 0 14.5 -6.5t6.5 -14.5t-6.5 -14.5t-14.5 -6.5h-208q-8 0 -14.5 6.5t-6.5 14.5t6.5 14.5t14.5 6.5h208zM354 300q8 0 14.5 -6.5t6.5 -14.5t-6.5 -14.5t-14.5 -6.5h-208q-8 0 -14.5 6.5t-6.5 14.5t6.5 14.5t14.5 6.5h208zM354 133
q8 0 14.5 -6.5t6.5 -14.5t-6.5 -14t-14.5 -6h-208q-8 0 -14.5 6t-6.5 14t6.5 14.5t14.5 6.5h208z" />
    <glyph glyph-name="glyph192" unicode="&#xe0c0;" horiz-adv-x="667" 
d="M583 639q34 0 59 -24.5t25 -58.5v-423q0 -69 -55.5 -117.5t-132.5 -48.5q-74 0 -127 45q-24 -40 -68 -63.5t-96 -23.5q-77 0 -132.5 49t-55.5 118q0 53 35 96.5t90 60.5v254q0 32 21 55.5t52 27.5l375 52zM333 133q0 47 35.5 82t89.5 42v72l-125 -18v-178zM583 133v423
l-375 -53v-330q-14 2 -20 2q-44 0 -74.5 -24.5t-30.5 -58.5q0 -35 31 -59.5t74 -24.5t73.5 24.5t30.5 59.5v255l208 31v-163q-14 2 -21 2q-43 0 -73.5 -24.5t-30.5 -59.5t30.5 -59t73.5 -24t73.5 24t30.5 59z" />
    <glyph glyph-name="glyph193" unicode="&#xe0c1;" horiz-adv-x="625" 
d="M602 636q9 1 16 -5.5t7 -15.5v-503q0 -43 -36.5 -73.5t-88.5 -30.5t-88.5 30.5t-36.5 73.5t36.5 74t88.5 31v155l-250 -26v-317q0 -43 -36.5 -73.5t-88.5 -30.5t-88.5 30.5t-36.5 73.5t36.5 73.5t88.5 30.5v430q0 8 5.5 14t12.5 7z" />
    <glyph glyph-name="glyph194" unicode="&#xe0c2;" horiz-adv-x="793" 
d="M604 689q77 0 133 -56t56 -133q0 -22 -7 -50q20 -62 -25 -107l-187 -188q-30 -30 -74 -30h-3l-90 -90q-25 -25 -63 -40q-10 -4 -289 -97q-8 -2 -13 -2q-21 0 -34 17t-6 37q93 279 97 289q15 38 41 64q331 330 332 331q57 55 132 55zM299 67l-127 127q-2 -6 -12 -35
t-17 -50l71 -71q35 11 85 29zM128 65l-21 -62l63 21zM449 195q-12 18 -10.5 40t17.5 38l154 154l-114 114l-297 -298l-8 -9l147 -147l10 7zM702 402q14 14 -0.5 28.5t-28.5 0.5l-188 -187q-10 -10 -4 -23t19 -13q9 0 15 6zM639 456q31 31 68 19q3 12 3 25q0 43 -31 74
q-33 31 -77.5 29.5t-76.5 -33.5z" />
    </font>
</defs>
</svg>
